<?xml version="1.0" standalone="no"?>
<!DOCTYPE svg PUBLIC "-//W3C//DTD SVG 1.1//EN" "http://www.w3.org/Graphics/SVG/1.1/DTD/svg11.dtd" >
<svg xmlns="http://www.w3.org/2000/svg">
<metadata></metadata>
<defs>
<font id="cinzelbold" horiz-adv-x="716" >
<font-face units-per-em="1000" ascent="800" descent="-200" />
<missing-glyph horiz-adv-x="250" />
<glyph horiz-adv-x="1000" />
<glyph horiz-adv-x="1000" />
<glyph unicode="&#xd;" horiz-adv-x="1000" />
<glyph unicode=" "  horiz-adv-x="250" />
<glyph unicode="&#x09;" horiz-adv-x="250" />
<glyph unicode="&#xa0;" horiz-adv-x="250" />
<glyph unicode="!" horiz-adv-x="269" d="M57 702h154l-18 -323l-36 -173h-46l-35 173zM61 62q0 30 21 51.5t51 21.5t51.5 -21.5t21.5 -51.5t-21.5 -51t-51.5 -21q-19 0 -36 9.5t-26.5 26.5t-9.5 36z" />
<glyph unicode="&#x22;" horiz-adv-x="362" d="M38 505q21 66 25.5 103.5t-1.5 91.5l107 14q1 -22 -4 -51t-17 -61.5t-37.5 -61t-58.5 -40.5zM194 505q22 66 26.5 103.5t-2.5 91.5l107 14q2 -22 -3.5 -51t-17.5 -61.5t-37 -61t-59 -40.5z" />
<glyph unicode="#" horiz-adv-x="574" d="M20 217v48h116l32 184h-104v48h113l35 203h51l-36 -203h150l35 203h51l-36 -203h107v-48h-116l-32 -184h104v-48h-113l-38 -217h-50l38 217h-150l-38 -217h-50l38 217h-107zM186 265h150l32 184h-150z" />
<glyph unicode="$" horiz-adv-x="557" d="M50 47q-12 32 -4 84t28 85h8q-5 -73 39 -125.5t122 -60.5l19 258l-107 71q-53 30 -77 77t-19 103q7 80 63 127.5t143 46.5h30l5 75l42 -1l-6 -76q37 -3 70 -7h63l-1 -13q-2 -19 -4 -42t-4.5 -49.5t-3.5 -42.5h-10q0 30 -13.5 54t-39 39t-60.5 20l-18 -233l120 -78 q95 -55 89 -166q-3 -62 -33 -107.5t-83.5 -71t-127.5 -28.5l-6 -88l-41 3l6 85q-64 3 -114 19t-75 42zM174 576q-3 -51 70 -93l32 -21l16 209q-34 -2 -60.5 -15t-41.5 -34t-16 -46zM284 29q58 4 91.5 35t33.5 76q0 60 -80 104l-27 18z" />
<glyph unicode="%" horiz-adv-x="740" d="M33 543q13 80 64 125.5t126 45.5q40 0 70.5 -12t55 -25t48.5 -15q19 -2 41 3.5t35.5 12t34.5 17.5t26 14l33 -14l-373 -711l-37 16l350 662q-57 -34 -111 -28q-25 3 -53 14q21 -44 12 -111q-11 -82 -63 -129t-130 -47q-73 0 -107.5 48.5t-21.5 133.5zM138 537 q-11 -67 -1.5 -105.5t36.5 -38.5q30 0 52 38.5t32 105.5q9 68 -0.5 106.5t-36.5 38.5q-28 0 -49.5 -38.5t-32.5 -106.5zM376 168q13 80 64 125.5t127 45.5q71 0 106 -47t25 -130q-10 -82 -62 -129t-132 -47q-73 0 -107.5 48.5t-20.5 133.5zM476 162q-10 -67 -0.5 -105.5 t35.5 -38.5q30 0 52.5 38t31.5 106q10 68 0.5 106.5t-36.5 38.5q-28 0 -50 -38.5t-33 -106.5z" />
<glyph unicode="&#x26;" horiz-adv-x="807" d="M27 216q0 38 13 69.5t35.5 52.5t46.5 35.5t52 23.5q-44 69 -44 139q0 58 35.5 99.5t88.5 60t118 18.5q63 0 118 -18.5t80 -52.5l-36 -143h-9q-1 74 -32 123t-95 49q-50 0 -81.5 -33t-31.5 -84q0 -55 38.5 -105t130.5 -130q129 -113 153 -133q29 93 -6 166q-22 46 -62 46 h-15v10h234v-10h-14q-21 0 -28.5 -13t-6.5 -40q3 -125 -43 -210q64 -55 105 -85t77 -40v-11q-38 -3 -49.5 -4t-50 -1.5t-61 3.5t-55.5 13.5t-60 25.5q-78 -47 -196 -47q-49 0 -95.5 6.5t-93.5 23t-81.5 41.5t-56.5 65t-22 90zM185 236q5 -96 71 -150t157 -54q65 0 114 36 q-82 64 -188 156q-85 73 -127 123q-30 -47 -27 -111z" />
<glyph unicode="'" horiz-adv-x="200" d="M32 505q21 66 25.5 103.5t-1.5 91.5l107 14q1 -22 -4 -51t-17 -61.5t-37.5 -61t-58.5 -40.5z" />
<glyph unicode="(" horiz-adv-x="423" d="M90 334q0 102 33 185.5t101 140t164 72.5l6 -8q-74 -35 -115.5 -137.5t-39.5 -250.5q2 -159 43 -269t110 -158l-6 -9q-94 29 -161.5 95.5t-101 153t-33.5 185.5z" />
<glyph unicode=")" horiz-adv-x="423" d="M30 724l6 8q143 -23 220.5 -132.5t77.5 -265.5q-1 -99 -34 -185.5t-101 -153t-161 -95.5l-6 9q33 23 60.5 62.5t47.5 93t31.5 122.5t13.5 149q2 148 -40 250.5t-115 137.5z" />
<glyph unicode="*" horiz-adv-x="388" d="M37 611v47l28 39l81 -40l45 -44l-28 57l-14 89l45 14l46 -14l-13 -89l-28 -57l45 44l81 41l28 -39v-47l-89 -16l-62 9l55 -29l64 -64l-29 -38l-44 -15l-43 79l-10 62l-11 -62l-41 -80l-45 16l-28 37l62 65l56 29l-62 -9z" />
<glyph unicode="+" horiz-adv-x="481" d="M40 281v57h172v173h57v-173h173v-57h-173v-172h-57v172h-172z" />
<glyph unicode="," horiz-adv-x="230" d="M42 -102q36 13 44 45.5t-20 66.5q-20 23 -21.5 54t18.5 52q24 24 62 15.5t54 -44.5q18 -38 12 -75.5t-25 -67t-52 -46t-68 -11.5z" />
<glyph unicode="-" horiz-adv-x="380" d="M32 292l8 33h300l8 -33l-8 -34h-300z" />
<glyph unicode="." horiz-adv-x="222" d="M39 62q0 30 21 51.5t51 21.5t51.5 -21.5t21.5 -51.5t-21.5 -51t-51.5 -21t-51 21t-21 51z" />
<glyph unicode="/" horiz-adv-x="426" d="M9 11l360 708l48 -23l-361 -710z" />
<glyph unicode="0" horiz-adv-x="653" d="M46 350q0 167 75 265.5t205.5 98.5t205.5 -98.5t75 -265.5t-75 -265.5t-205.5 -98.5t-205.5 98.5t-75 265.5zM201 350q0 -159 32 -240.5t93.5 -81.5t93.5 81.5t32 240.5t-32 240.5t-93 81.5q-41 0 -69 -36.5t-42.5 -108t-14.5 -177.5z" />
<glyph unicode="1" horiz-adv-x="392" d="M42 640v10q155 13 223 64h10v-651q0 -14 7.5 -26.5t20 -19.5t27.5 -7h21v-10h-302v10h21q23 0 39.5 16t16.5 38v515q0 61 -59 61h-25z" />
<glyph unicode="2" horiz-adv-x="616" d="M45 0v10q14 16 51.5 58t57 63.5t54 63t53.5 68.5t44.5 65.5t38.5 68t22.5 63.5t9.5 63q0 71 -36 111.5t-98 37.5q-67 -4 -102.5 -51t-34.5 -134h-10l-48 154q25 22 63 39t81 25.5t85 8.5q76 0 134.5 -24t92 -70t33.5 -108q0 -30 -9.5 -61.5t-22 -56.5t-38 -56t-42 -49.5 t-50.5 -48t-47.5 -40.5t-49 -39t-40.5 -32h206q44 0 73.5 22.5t55.5 74.5h10l-59 -226h-478z" />
<glyph unicode="3" horiz-adv-x="563" d="M42 641q76 69 213 71q107 2 169 -42.5t62 -120.5q0 -64 -41.5 -107t-95.5 -46q31 -6 58 -19.5t51.5 -35.5t39 -56.5t14.5 -78.5q0 -59 -28 -109.5t-75 -83.5t-106 -51.5t-126 -17t-130 23.5l2 10q81 -2 150 27t110.5 85t41.5 127q0 43 -16 76t-43.5 52t-61 29t-72.5 10 l2 10q71 -1 124 48t47 123q-4 51 -37 79.5t-85 25.5q-121 -7 -115 -171h-10z" />
<glyph unicode="4" horiz-adv-x="619" d="M7 212v10l457 492h9v-416h44q26 0 38.5 7.5t22.5 24.5h10l-28 -118h-87v-149q1 -22 17 -37.5t39 -15.5h10l1 -10h-283v10h11q22 0 38 15t17 37v150h-316zM139 298h184v197z" />
<glyph unicode="5" horiz-adv-x="554" d="M26 -31l2 10q27 -1 63 6.5t77.5 25t76.5 43t59.5 64.5t27.5 86q4 59 -32 96.5t-97.5 42t-140.5 -23.5l-9 5l81 340l258 21q54 0 80 50h10l-39 -167l-279 -21l-29 -112q164 39 264.5 -24t95.5 -194q-3 -59 -29 -107.5t-65.5 -80t-90 -52.5t-101.5 -27.5t-99 -1.5t-84 21z " />
<glyph unicode="6" horiz-adv-x="629" d="M50 298q0 97 28 178t82 141t140.5 91.5t196.5 25.5l4 -7q-73 -23 -125 -56t-83 -70.5t-48.5 -90t-23 -103.5t-5.5 -122q0 -128 23 -190t84 -62q39 0 64 26.5t34 64.5t9 88q-1 149 -83 160q-25 6 -49 -2t-40 -24l-7 8q14 23 36 40.5t47.5 27t54.5 11t56.5 -4.5t52.5 -22 t44 -40t30.5 -61t11.5 -81q0 -101 -67.5 -169t-191.5 -70q-131 -2 -203.5 77.5t-71.5 235.5z" />
<glyph unicode="7" horiz-adv-x="544" d="M17 512l28 186h478l-119 -292q-27 -64 -72 -199t-65 -207h-130q45 85 110 215.5t94 198.5l66 158h-305q-29 0 -46.5 -14.5t-28.5 -45.5h-10z" />
<glyph unicode="8" horiz-adv-x="603" d="M39 168q1 117 144 170q-104 76 -104 183q0 87 61 139.5t159 53.5q93 1 157 -46t64 -123q0 -37 -17.5 -67.5t-46.5 -50.5t-67 -30q21 -11 34 -18t31.5 -18t30 -20t26 -22t22.5 -26t16 -29t11.5 -34.5t3.5 -39.5q0 -96 -74.5 -150t-199.5 -54q-51 0 -94.5 10t-79.5 31 t-57 57t-20 84zM171 182q-1 -70 32 -110.5t92 -43.5q56 -3 92 29t36 80q0 46 -34.5 76.5t-118.5 73.5q-30 16 -51 28q-48 -50 -48 -133zM208 571q0 -22 7 -40.5t24 -37t42 -35.5t65 -39q24 27 35.5 69.5t8 82.5t-27.5 69.5t-64 30.5q-42 1 -66 -27.5t-24 -72.5z" />
<glyph unicode="9" horiz-adv-x="629" d="M46 472q1 106 68.5 171.5t190.5 67.5q88 2 149 -32t93.5 -105t32.5 -176q0 -96 -28 -177t-82 -141.5t-140.5 -92t-196.5 -25.5l-4 7q73 22 124.5 54.5t82.5 70.5t48.5 90t23.5 103.5t6 120.5q0 132 -23 193.5t-84 61.5q-39 0 -64 -25.5t-34 -64t-9 -88.5q1 -151 84 -161 q24 -5 48 3t40 24l7 -9q-18 -30 -50.5 -50t-69 -26t-75 3.5t-69.5 33t-50 67.5t-19 102z" />
<glyph unicode=":" horiz-adv-x="218" d="M39 62q0 30 21 51.5t51 21.5t51.5 -21.5t21.5 -51.5t-21.5 -51t-51.5 -21t-51 21t-21 51zM39 445q0 30 21 51t51 21t51.5 -21t21.5 -51t-21.5 -51.5t-51.5 -21.5t-51 21.5t-21 51.5z" />
<glyph unicode=";" horiz-adv-x="393" d="M39 473.5q0 29.5 21 51t51 21.5t51.5 -21.5t21.5 -51t-21.5 -51t-51.5 -21.5t-51 21.5t-21 51zM42 -102q36 13 44 45.5t-20 66.5q-20 23 -21.5 54t18.5 52q24 24 62 15.5t54 -44.5q18 -38 12 -75.5t-25 -67t-52 -46t-68 -11.5z" />
<glyph unicode="&#x3c;" horiz-adv-x="493" d="M40 283v53l402 189v-62l-322 -153l322 -154v-62z" />
<glyph unicode="=" horiz-adv-x="481" d="M40 183v57h402v-57h-402zM40 358v57h402v-57h-402z" />
<glyph unicode="&#x3e;" horiz-adv-x="481" d="M40 94v62l322 154l-322 153v62l402 -188v-54z" />
<glyph unicode="?" horiz-adv-x="461" d="M8 625q23 41 73.5 65t118.5 24q107 0 165.5 -46t58.5 -128q0 -36 -16 -69t-35 -53t-54 -53.5t-54 -54.5q-14 -16 -20.5 -24t-13.5 -22.5t-5 -29t12 -31.5l-8 -6q-39 17 -60 46t-18 67q1 24 13.5 45.5t28.5 39.5t32 38t27 48.5t11 63.5q-1 61 -27.5 94t-75.5 33 q-34 0 -58.5 -17t-37.5 -51.5t-13 -85.5h-10zM135 62q0 20 10 36.5t26.5 26.5t36.5 10q30 0 51 -21.5t21 -51.5t-21 -51t-51 -21t-51.5 21t-21.5 51z" />
<glyph unicode="@" horiz-adv-x="989" d="M64 395q64 153 219.5 235.5t341.5 57.5q164 -22 249.5 -125.5t76.5 -250.5q-7 -114 -62 -210.5t-152 -158t-232 -67.5t-302 61l-4 10q128 -52 239.5 -43.5t195.5 61.5t136 145t61 206q11 135 -44.5 223.5t-164.5 108.5q-84 15 -165 -7t-154 -86t-119 -165 q-32 -68 -42.5 -131t4 -104.5t54.5 -42.5q20 -1 41.5 10t43 34t36.5 41.5t37 50t31 43.5l127 173q47 57 55 77h7l67 -404q8 -47 40 -47h5l-1 -7h-207l1 7h7q14 0 28 12t14 31l-8 74h-147q-53 -71 -92 -102t-85 -32q-64 -2 -108.5 41.5t-53.5 115.5t26 165zM399 237h122 l-17 149z" />
<glyph unicode="A" d="M-28 0v10h9q23 0 46 14t38 42l231 523q47 99 50 131h9l297 -652q15 -29 38 -43.5t47 -14.5h9v-10h-319v10h9q22 0 35.5 17.5t2.5 45.5l-49 123h-234l-52 -123q-11 -28 3 -45.5t36 -17.5h8v-10h-214zM208 238h200l-97 246z" />
<glyph unicode="B" horiz-adv-x="674" d="M42 0v10h13q17 0 31.5 8.5t23 22.5t9.5 31v556q-1 26 -19.5 44t-44.5 18h-13v10h290q116 0 184.5 -42t69.5 -129q-1 -44 -19 -77t-45 -50t-59 -21q77 -7 127 -57.5t50 -128.5q0 -94 -75.5 -144.5t-206.5 -50.5h-316zM269 46h46q70 -1 111.5 39.5t41.5 121.5 q0 83 -46.5 123t-118.5 40v9q52 0 87 33.5t36 103.5q-1 49 -17 81t-44 46t-67 14h-29v-611z" />
<glyph unicode="C" horiz-adv-x="780" d="M45 351q0 168 109 265.5t299 97.5q145 0 249 -54l2 -172h-8q-51 184 -233 184q-118 0 -186.5 -85.5t-68.5 -233.5t65.5 -235t177.5 -90q117 0 178.5 59.5t84.5 204.5h8l10 -172q-81 -134 -281 -134q-186 1 -296 98t-110 267z" />
<glyph unicode="D" horiz-adv-x="828" d="M42 0v10h13q26 0 44.5 18.5t19.5 44.5v560q0 24 -19.5 40.5t-44.5 16.5h-13v10h363q177 0 280 -94t103 -256t-103 -256t-280 -94h-363zM269 43h123q72 0 124.5 37t80.5 106.5t28 163.5q0 142 -62.5 225t-170.5 83h-123v-615z" />
<glyph unicode="E" horiz-adv-x="631" d="M42 0v10h13q26 0 44.5 18.5t19.5 44.5v557q-1 13 -6.5 24t-14 19t-20 12.5t-23.5 4.5h-13v10h383q16 0 34.5 2t35 4.5t30 5.5t20.5 6v-175l-10 1v11q0 30 -12 52.5t-34 35.5t-52 14h-168v-291h132q37 1 61 25.5t24 60.5v9h10v-231h-10v8q0 37 -23.5 61t-59.5 25h-134 v-281h131q73 0 122.5 42t73.5 119h10l-46 -204h-518z" />
<glyph unicode="F" horiz-adv-x="595" d="M42 0v10h13q26 0 44.5 18.5t19.5 44.5v557q0 17 -9 30.5t-23.5 21.5t-31.5 8h-13v10h383q31 0 68 6t52 12v-169h-10v10q0 44 -25.5 70.5t-69.5 27.5h-171v-291h132q37 1 61 25t24 61v9h10v-231h-10v8q0 37 -23.5 61t-59.5 25h-134v-251q0 -26 19 -44.5t45 -18.5h12l1 -10 h-304z" />
<glyph unicode="G" horiz-adv-x="836" d="M45 351q0 167 103.5 265t280.5 98q80 0 155 -15.5t121 -38.5l2 -172h-9q-26 97 -89 140.5t-150 43.5q-121 0 -186 -86.5t-65 -240.5q0 -147 59.5 -232t168.5 -85q37 0 71 11.5t60.5 34t38.5 53.5v153q0 22 -13.5 33.5t-38.5 11.5h-16v10h281v-10h-15q-16 0 -27 -5 t-17 -15.5t-6 -24.5v-165q-39 -51 -129 -90t-202 -39q-171 0 -274.5 98.5t-103.5 266.5z" />
<glyph unicode="H" horiz-adv-x="861" d="M42 0v10h13q26 0 44.5 18.5t19.5 44.5v554q-1 26 -19.5 44.5t-44.5 18.5h-13v10h304l-1 -10h-12q-26 0 -45 -18.5t-19 -44.5v-257h324v257q-1 26 -19.5 44.5t-44.5 18.5h-13v10h304v-10h-13q-26 0 -45 -18.5t-19 -44.5v-554q0 -26 19 -44.5t45 -18.5h13v-10h-304v10h13 q26 0 44.5 18t19.5 44v255h-324v-254q0 -17 8.5 -31.5t23.5 -23t32 -8.5h12l1 -10h-304z" />
<glyph unicode="I" horiz-adv-x="386" d="M42 0v10h13q26 0 44.5 18.5t19.5 44.5v555q-1 26 -19.5 44t-44.5 18h-13v10h304l-1 -10h-12q-26 0 -45 -18t-19 -44v-555q0 -26 19 -44.5t45 -18.5h12l1 -10h-304z" />
<glyph unicode="J" horiz-adv-x="384" d="M5 -191q60 25 88.5 86.5t28.5 137.5v594q-1 17 -9.5 31.5t-23 23t-31.5 8.5h-13v10h304v-10h-13q-26 0 -44.5 -18.5t-19.5 -44.5v-597q0 -71 -38 -127t-99 -83t-130 -20v9z" />
<glyph unicode="K" horiz-adv-x="757" d="M42 0v10h13q12 0 24 5t20.5 13.5t13.5 20t6 24.5v555q-1 17 -9.5 31t-23 22.5t-31.5 8.5h-13v10h304l-1 -10h-12q-13 0 -24.5 -5t-20.5 -13t-14 -19.5t-5 -24.5v-555q0 -17 8.5 -31.5t23.5 -23t32 -8.5h12l1 -10h-304zM301 330l237 314q13 16 5 31.5t-28 15.5h-10v9h229 v-9h-4q-67 0 -109 -48l-195 -231l249 -340q46 -60 102 -62v-10h-82q-152 0 -215 83q-179 243 -179 247z" />
<glyph unicode="L" horiz-adv-x="616" d="M42 0v10h13q26 0 44.5 18.5t19.5 44.5v554q-1 26 -19.5 44.5t-44.5 18.5h-13v10h304l-1 -10h-12q-26 0 -45 -18.5t-19 -44.5v-584h131q73 0 122.5 42t73.5 119h10l-46 -204h-518z" />
<glyph unicode="M" horiz-adv-x="953" d="M-9 0v10h16q28 0 48.5 17t24.5 46l83 641h9l310 -510l298 510h9l85 -641q5 -29 25.5 -46t47.5 -17h16v-10h-300v9h15q17 0 29 13.5t10 29.5l-39 363l-188 -324q-37 -62 -38 -111h-10l-257 432l-39 -360q-2 -16 10 -29.5t29 -13.5h15v-9h-209z" />
<glyph unicode="N" horiz-adv-x="865" d="M30 0v10h18q26 0 44 17.5t18 43.5v519q0 33 -3 64.5t-6 45.5l-2 15h9l505 -481v395q-1 26 -19 43.5t-43 17.5h-18v10h303v-10h-19q-25 0 -43 -17.5t-19 -42.5v-516q0 -34 3 -66t6 -47l3 -15h-9l-505 481v-397q0 -25 18 -42.5t43 -17.5h19v-10h-303z" />
<glyph unicode="O" horiz-adv-x="878" d="M49 350q0 168 106.5 266t287 98t287 -98t106.5 -266t-106.5 -266t-287 -98t-287 98t-106.5 266zM213 350q0 -149 61.5 -235.5t167.5 -86.5t168 86.5t62 235.5t-62 235.5t-168 86.5t-167.5 -86.5t-61.5 -235.5z" />
<glyph unicode="P" horiz-adv-x="655" d="M45 0v10h13q26 0 44.5 18.5t19.5 44.5v559q0 25 -19 41.5t-45 16.5h-13v10h334q122 0 184 -52.5t64 -139.5q2 -50 -17 -93t-52.5 -70t-75 -40t-88 -6t-88.5 34v10h4h11.5t17 1.5t20.5 5t23 8.5t23.5 13.5t22 20t19.5 28.5t14 37q8 28 6 60q-2 65 -35.5 103t-92.5 38h-67 v-585q0 -26 19 -44.5t45 -18.5h13v-10h-304z" />
<glyph unicode="Q" horiz-adv-x="882" d="M48 350q0 168 106.5 266t286.5 98q181 0 287 -98t106 -266q0 -132 -67.5 -222.5t-186.5 -123.5q44 -9 96.5 -25.5t87.5 -29.5t124 -47q134 -53 257.5 -47t205.5 73l6 -4q-5 -81 -75.5 -138t-187.5 -64t-268 66q-45 23 -104.5 60t-100 63.5t-91.5 48.5t-95 26 q-178 2 -282.5 99.5t-104.5 264.5zM211 350q0 -98 28 -171t80 -112t122 -39q106 0 168 86.5t62 235.5t-62 235.5t-168 86.5t-168 -86.5t-62 -235.5z" />
<glyph unicode="R" horiz-adv-x="747" d="M45 700h343q48 0 89 -10t75 -31.5t54 -59t20 -88.5q0 -70 -42 -126t-122 -64q20 -6 40 -21t35 -31.5t27 -35.5q61 -97 101 -147q33 -42 59 -58.5t65 -17.5v-10h-98q-87 0 -144.5 23t-90.5 81q-19 33 -83 171q-28 61 -68 67v10h31q45 0 79.5 27t46.5 88q5 25 4 49 q-3 69 -34.5 104t-83.5 36q-13 1 -43 0.5t-33 -0.5v-583q1 -26 19.5 -44.5t44.5 -18.5h13v-10h-304v10h13q17 0 31.5 8.5t23 22.5t9.5 31v555q-1 26 -19.5 44.5t-44.5 18.5h-13v10z" />
<glyph unicode="S" horiz-adv-x="578" d="M57 47q-12 32 -4 84t28 85h9q-6 -79 47 -134t141 -54q64 1 101 32.5t37 80.5q0 29 -18.5 52t-61.5 51l-174 115q-106 71 -95 180q6 79 61.5 127t148.5 48q55 0 136 -10h63l-13 -147h-10q0 52 -38.5 83.5t-102.5 31.5q-38 0 -67.5 -13t-45.5 -34.5t-18 -48.5 q-1 -19 8.5 -36t24 -29.5t37.5 -27.5l191 -124q95 -62 90 -166q-5 -98 -75 -152.5t-190 -54.5q-68 0 -125.5 16.5t-84.5 44.5z" />
<glyph unicode="T" horiz-adv-x="666" d="M14 545v174q7 -3 20.5 -6t29.5 -5.5t34.5 -4.5t33.5 -2h403q31 0 67.5 6t50.5 12v-174h-10v12q0 30 -12 53t-34.5 35.5t-53.5 13.5h-134v-587q1 -26 19.5 -44t44.5 -18h12l1 -10h-304v10h13q25 0 43.5 18t20.5 43v588h-135q-46 -1 -73 -29t-27 -73v-12h-10z" />
<glyph unicode="U" horiz-adv-x="821" d="M38 690v10h288v-10h-16q-22 0 -37 -13.5t-16 -34.5v-382q0 -106 52 -168t142 -62q92 0 145 58.5t54 158.5v395q-1 21 -16.5 34.5t-36.5 13.5h-16v10h209v-10h-17q-21 0 -36 -13.5t-16 -33.5v-390q0 -123 -77 -195t-211 -72q-158 0 -242 70.5t-84 195.5v388q0 15 -7.5 26 t-19.5 17.5t-26 6.5h-16z" />
<glyph unicode="V" horiz-adv-x="727" d="M-28 690v10h318v-10h-8q-22 0 -35.5 -17.5t-3.5 -45.5l170 -413l176 413q11 28 -2.5 45.5t-35.5 17.5h-9v10h214v-10h-9q-23 0 -46 -14t-38 -42l-237 -523q-46 -99 -49 -131h-9l-303 653q-15 28 -38 42.5t-47 14.5h-8z" />
<glyph unicode="W" horiz-adv-x="971" d="M-34 690v10h305v-10h-9q-21 0 -34.5 -17.5t-3.5 -44.5l123 -348l181 436l9 -1l199 -439l100 352q8 28 -4 45t-34 17h-9v10h211v-10h-9q-25 0 -50.5 -15t-36.5 -43l-168 -539q-2 -7 -5 -18.5t-8 -41t-4 -51.5h-10l-218 483l-158 -372q-23 -58 -24 -111h-10l-239 650 q-13 29 -37 43.5t-49 14.5h-8z" />
<glyph unicode="X" horiz-adv-x="729" d="M-24 0v10h14q56 0 99 56l197 279l-185 286q-17 25 -44 42t-57 17h-14v10h340v-10h-13q-21 0 -33.5 -20.5t-1.5 -40.5l125 -193l123 192q12 20 -1 41t-34 21h-13v10h246v-10h-14q-30 0 -56 -16.5t-44 -41.5l-170 -253l201 -311q17 -25 44.5 -41.5t56.5 -16.5h14v-10h-341 v10h13q21 0 33.5 20.5t0.5 40.5l-140 218l-147 -217q-13 -20 0.5 -41t34.5 -21h13v-10h-247z" />
<glyph unicode="Y" horiz-adv-x="702" d="M-31 690v10h331v-10h-13q-22 0 -34 -20.5t-1 -41.5l143 -260l149 260q11 21 -1.5 41.5t-34.5 20.5h-12v10h238v-10h-14q-30 0 -57 -17t-43 -41l-197 -314v-245q0 -26 19 -44.5t45 -18.5h12l1 -10h-304v10h13q26 0 44.5 18t19.5 44v247l-191 314q-15 24 -42.5 40.5 t-56.5 16.5h-14z" />
<glyph unicode="Z" horiz-adv-x="661" d="M45 0v9l367 650h-242q-31 -1 -53.5 -13.5t-35 -35.5t-12.5 -53v-12h-10v174q15 -6 53 -12t68 -6h319q19 0 42 2t40.5 5t22.5 6v-9l-370 -663h210q64 0 111.5 43t67.5 116h10l-36 -201h-552z" />
<glyph unicode="[" horiz-adv-x="417" d="M120 -90v812h254v-10l-104 -38v-716l107 -38v-10h-257z" />
<glyph unicode="\" horiz-adv-x="426" d="M9 696l48 23l360 -708l-47 -25z" />
<glyph unicode="]" horiz-adv-x="417" d="M40 -80l107 38v716l-104 38v10h254v-812h-257v10z" />
<glyph unicode="^" horiz-adv-x="552" d="M35 176l210 201h65l208 -201h-78l-162 153l-164 -153h-79z" />
<glyph unicode="_" horiz-adv-x="500" d="M0 -60h500v-42h-500v42z" />
<glyph unicode="`" horiz-adv-x="536" d="M61 834q19 57 68 81q101 -91 143 -164l-7 -7q-100 24 -204 90z" />
<glyph unicode="a" horiz-adv-x="644" d="M-27 0v10h8q21 0 42 13t34 39l207 444q44 99 46 122h9l268 -562q13 -29 34.5 -42.5t43.5 -13.5h8v-10h-294v10h8q20 0 32 15.5t2 39.5l-39 92h-212l-40 -93q-9 -24 3 -39t32 -15h8v-10h-200zM187 196h178l-88 209z" />
<glyph unicode="b" horiz-adv-x="604" d="M36 0v10h11q23 0 38.5 15t16.5 38v474q-1 23 -16.5 38t-38.5 15h-11v10h268q226 0 226 -149q0 -37 -16 -65t-40.5 -42.5t-53.5 -16.5q67 -5 112 -47.5t45 -108.5q0 -46 -20 -79.5t-55.5 -53t-79.5 -29t-96 -9.5h-290zM244 40h40q58 0 94.5 34t36.5 106q0 46 -18.5 77.5 t-50 45.5t-73.5 14v9q48 0 78 28t30 87q0 120 -109 120h-28v-521z" />
<glyph unicode="c" horiz-adv-x="682" d="M34 300q0 147 95.5 230t264.5 83q132 0 225 -46v-159h-7q-25 89 -77 127t-131 38q-106 0 -162 -72.5t-56 -198.5q0 -125 55 -199t153 -76q72 0 118.5 22t73.5 70.5t40 131.5h7l12 -151q-31 -51 -94.5 -82t-156.5 -31q-168 1 -264 83.5t-96 229.5z" />
<glyph unicode="d" horiz-adv-x="748" d="M33 590v10h338q161 0 252 -79.5t91 -220.5t-91 -220.5t-252 -79.5h-338v10h13q23 0 39 16t17 38v474q-2 22 -18 37t-39 15h-12zM246 40h113q94 0 148.5 69t54.5 191t-54.5 191.5t-148.5 69.5h-113v-521z" />
<glyph unicode="e" horiz-adv-x="563" d="M34 0v10h12q23 0 38.5 15t16.5 37v476q-1 22 -16.5 37t-38.5 15h-12v10h352q27 0 59 5t45 10v-159h-10v9q0 44 -24 69t-67 26h-144v-243h114q34 1 55 23t21 56v7h10v-212h-10v7q0 23 -9 40.5t-26.5 28t-39.5 10.5h-115v-237h120q62 1 105.5 38.5t63.5 105.5h9l-38 -184 h-471z" />
<glyph unicode="f" horiz-adv-x="534" d="M34 0v10h12q23 0 38.5 15t16.5 37v476q0 22 -16 37t-39 15h-12v10h353q14 0 30 1.5t30.5 4t26.5 5t18 4.5v-160h-11v10q0 43 -24 68.5t-68 26.5h-144v-243h115q23 1 40.5 11.5t26.5 28t9 39.5v7h11v-212h-11v7q0 22 -9 40t-26 28.5t-40 10.5h-116v-214q1 -23 16.5 -38 t38.5 -15h12v-10h-278z" />
<glyph unicode="g" horiz-adv-x="730" d="M34 301q0 146 89.5 229t246.5 83q70 0 138 -12.5t110 -33.5v-159h-8q-44 165 -210 165q-104 0 -158.5 -72.5t-54.5 -205.5q0 -126 49.5 -197t140.5 -71q50 0 90 23.5t53 67.5l1 120q0 19 -11.5 29.5t-32.5 10.5h-14v8h257v-8h-12q-44 0 -44 -40v-134q-22 -28 -64 -54 t-105.5 -44.5t-130.5 -18.5q-151 1 -240.5 84.5t-89.5 229.5z" />
<glyph unicode="h" horiz-adv-x="750" d="M34 0v10h11q23 0 39 15.5t16 37.5v474q0 22 -16 37.5t-39 15.5h-11v10h276v-10h-11q-22 0 -38 -15t-17 -37v-219h263v218q0 15 -7.5 27t-20 19t-27.5 7h-10v10h275v-10h-11q-22 0 -38 -15t-17 -38v-475q1 -22 16.5 -37t38.5 -15h11v-10h-275v10h10q23 0 39 15t16 38v216 h-263v-216q1 -15 8 -27t19.5 -19t27.5 -7h11v-10h-276z" />
<glyph unicode="i" horiz-adv-x="352" d="M34 0v10h12q24 0 41 15.5t17 37.5v474q0 22 -17 37.5t-41 15.5h-12v10h284v-10h-12q-23 0 -40 -15t-18 -37v-475q1 -15 8.5 -27t21 -19t28.5 -7h12v-10h-284z" />
<glyph unicode="j" horiz-adv-x="340" d="M-3 -165q54 23 79 77t25 121v504q-1 22 -18 37.5t-41 15.5h-11v10h284v-10h-12q-23 0 -40 -15.5t-18 -38.5v-505q0 -64 -35.5 -114t-92.5 -73.5t-120 -17.5v9z" />
<glyph unicode="k" horiz-adv-x="673" d="M35 600h277v-10h-11q-22 0 -38.5 -15t-17.5 -37v-475q1 -15 8.5 -27t20 -19t27.5 -7h10l1 -10h-276v10h10q23 0 39 15.5t17 37.5v474q-1 15 -8.5 27t-20 19t-27.5 7h-11v10zM275 280l205 272q11 14 4 26.5t-24 12.5h-9v9h204v-9h-4q-54 0 -90 -36l-166 -196l210 -292 q40 -57 90 -58v-9h-77q-139 0 -198 77q-5 8 -43.5 61.5t-54.5 75.5z" />
<glyph unicode="l" horiz-adv-x="548" d="M34 0v10h12q23 0 38.5 15t15.5 37v475q0 22 -16 37.5t-38 15.5h-12v10h278v-10h-12q-23 0 -39 -15t-16 -38v-497h120q62 1 105 38.5t63 105.5h11l-39 -184h-471z" />
<glyph unicode="m" horiz-adv-x="863" d="M-8 0v10h14q25 0 43.5 14.5t21.5 39.5l78 549h8l283 -423l265 423h9l80 -554q5 -23 23 -36t41 -13h14v-10h-278v10h14q19 0 27.5 13t6.5 27l-39 286l-159 -253q-36 -57 -36 -102h-9l-231 350l-34 -281q-2 -14 7 -27t27 -13h14v-10h-190z" />
<glyph unicode="n" horiz-adv-x="779" d="M21 0v10h16q23 0 39 14.5t16 36.5v440q0 30 -2.5 58t-5.5 41l-2 14l9 -1l458 -403v329q0 22 -15.5 36.5t-38.5 14.5h-17v10h281v-10h-17q-23 0 -38.5 -14t-16.5 -36v-437q0 -31 2.5 -60t5.5 -42l2 -14h-9l-459 405v-331q1 -22 16.5 -36.5t38.5 -14.5h17v-10h-280z" />
<glyph unicode="o" horiz-adv-x="777" d="M35 300q0 144 96.5 228.5t256.5 84.5q161 0 258 -84.5t97 -228.5t-97 -228.5t-258 -84.5q-159 0 -256 84.5t-97 228.5zM188 300q0 -126 54.5 -199.5t145.5 -73.5q92 0 146.5 73.5t54.5 199.5t-54.5 199.5t-146.5 73.5q-91 0 -145.5 -73.5t-54.5 -199.5z" />
<glyph unicode="p" horiz-adv-x="585" d="M34 590v10h296q115 0 172.5 -45.5t60.5 -120.5q2 -57 -24 -102.5t-67.5 -67.5t-94.5 -19.5t-101 34.5v8q101 0 129 102q18 73 -14.5 122.5t-100.5 49.5h-45v-498q0 -15 7 -27t19.5 -19t27.5 -7h12v-10h-276v10h12q22 0 37.5 15t15.5 37v475q0 23 -15.5 38t-38.5 15h-12z " />
<glyph unicode="q" horiz-adv-x="766" d="M35 300q0 144 94 228.5t251 84.5q156 0 250.5 -84.5t94.5 -228.5q0 -74 -26.5 -134t-75 -100.5t-115.5 -60.5q39 -8 82.5 -21t73 -24t104.5 -39q118 -45 220 -40.5t171 59.5l5 -3q-3 -76 -64.5 -128t-162 -56.5t-231.5 60.5q-45 24 -111 69.5t-115.5 73t-96.5 31.5h-3 q-157 0 -251 84.5t-94 228.5zM189 300q0 -126 51.5 -199.5t139.5 -73.5t139.5 73t51.5 200q0 126 -51.5 199.5t-139.5 73.5t-139.5 -73.5t-51.5 -199.5z" />
<glyph unicode="r" horiz-adv-x="657" d="M41 0v10h12q22 0 37.5 15t15.5 37v476q0 22 -15.5 37t-36.5 15h-13v10h307q44 0 81.5 -8.5t69 -26.5t50 -51t18.5 -78q0 -58 -35 -104.5t-104 -56.5q27 -9 53.5 -34t42.5 -51q32 -57 73 -112q20 -27 35.5 -41.5t31 -20.5t36.5 -6v-10h-84q-83 0 -127.5 20t-79.5 76 q-54 86 -67 136q-12 30 -28.5 45t-31.5 17v8h25q85 1 104 100q5 18 4 42q-2 34 -13.5 58.5t-29.5 35.5t-32.5 15.5t-31.5 4.5q-14 1 -33.5 1h-23.5v-496q0 -24 16.5 -38.5t37.5 -14.5h11v-10h-275z" />
<glyph unicode="s" horiz-adv-x="514" d="M52 40q-11 30 -3.5 76.5t26.5 76.5h8q-5 -70 41 -118t124 -48q56 0 86 26t30 65q0 25 -17.5 44.5t-57.5 45.5l-142 90q-100 63 -89 163q6 71 55 111.5t126 40.5q56 0 130 -9h54l-14 -132h-9q0 47 -32.5 74t-91.5 27q-48 0 -78 -21.5t-31 -56.5q-2 -17 8 -32.5t21.5 -24 t34.5 -22.5l159 -98q88 -54 82 -150q-5 -84 -68 -132.5t-167 -48.5q-64 0 -113 15t-72 38z" />
<glyph unicode="t" horiz-adv-x="599" d="M10 458v158q14 -5 46.5 -10t58.5 -5h369q14 0 30.5 1.5t31.5 4t27 5t16 4.5v-158h-10v9q0 43 -24 68t-67 26h-116v-499q1 -22 17 -37t38 -15h11v-10h-276v10h10q23 0 39 15t16 38v498h-115q-44 -1 -68 -26t-24 -68v-9h-10z" />
<glyph unicode="u" horiz-adv-x="704" d="M27 590v10h263v-10h-14q-19 0 -32 -12t-13 -30v-325q0 -92 42.5 -144t118.5 -52q78 0 122.5 49t44.5 136v336q-1 19 -14 30.5t-32 11.5h-13v10h185v-10h-14q-19 0 -32 -11.5t-14 -29.5v-331q0 -108 -66 -169.5t-186 -61.5q-141 0 -213.5 60t-72.5 169v332q0 18 -13.5 30 t-32.5 12h-14z" />
<glyph unicode="v" horiz-adv-x="636" d="M-27 590v10h293v-9h-8q-19 0 -31 -16t-3 -41l140 -325l143 325q11 25 -1.5 41t-31.5 16h-8v9h199v-10h-8q-21 0 -42 -12.5t-34 -38.5l-204 -430q-44 -96 -46 -122h-9l-266 550q-27 53 -76 53h-7z" />
<glyph unicode="w" horiz-adv-x="869" d="M-23 590v10h281v-10h-8q-19 0 -30.5 -14.5t-2.5 -40.5l104 -272l158 351h8l175 -353l81 274q4 14 3 24.5t-6.5 17t-12.5 10t-16 3.5h-8v10h188v-10h-7q-23 0 -44 -12t-31 -35l-148 -453l-5 -17.5t-7.5 -37t-3.5 -46.5h-9l-195 394l-135 -293q-23 -53 -23 -101h-9 l-213 550q-11 25 -31.5 38t-44.5 13h-8z" />
<glyph unicode="x" horiz-adv-x="650" d="M-19 0v10h12q48 0 85 44l178 234l-166 258q-15 20 -38 32.5t-48 12.5h-12v10h308v-10h-11q-19 0 -30 -17t-1 -34l106 -164l107 164q11 17 0 34t-30 17h-11v10h219v-10h-13q-25 0 -47.5 -12.5t-37.5 -32.5l-153 -222l173 -268q10 -13 23 -23t30 -16.5t34 -6.5h12v-10h-310 v10h11q19 0 30 17t1 34l-114 176l-128 -176q-12 -18 -0.5 -34.5t30.5 -16.5h11v-10h-220z" />
<glyph unicode="y" horiz-adv-x="635" d="M-31 590v10h304v-10h-11q-19 0 -29.5 -16t-2.5 -33l133 -230l135 230q8 17 -3 33t-30 16h-10v10h214v-10h-13q-26 0 -49.5 -14t-38.5 -35l-178 -274v-204q1 -22 17 -37.5t40 -15.5h11v-10h-280v10h12q23 0 39 15.5t17 37.5v204l-177 274q-14 22 -37.5 35.5t-50.5 13.5 h-12z" />
<glyph unicode="z" horiz-adv-x="606" d="M35 0v8l329 553h-214q-43 -1 -67 -26t-24 -69v-8h-10v158q12 -5 46.5 -10t62.5 -5h294q29 0 61.5 4t41.5 8v-8l-325 -566h173q133 2 179 145h11l-44 -184h-514z" />
<glyph unicode="{" horiz-adv-x="379" d="M85 314v10q39 1 47 16q4 11 -1 40t-12 70t-7 69q0 94 59.5 154t179.5 60l1 -8q-22 -6 -37.5 -15t-25.5 -24t-15.5 -28t-8 -37t-3 -39t-0.5 -46v-7q0 -78 -11.5 -121t-32 -61.5t-59.5 -30.5q56 -15 79.5 -60t23.5 -144v-32t-0.5 -32t0 -28.5t2.5 -26.5t5.5 -23t9 -21.5 t14 -17t20.5 -14t27 -9.5l-2 -8q-61 0 -106 17t-70.5 47t-37.5 66.5t-12 81.5q0 29 6.5 72.5t10.5 64.5t0 43q-8 19 -44 22z" />
<glyph unicode="|" horiz-adv-x="257" d="M100 -180v880h57v-880h-57z" />
<glyph unicode="}" horiz-adv-x="379" d="M28 725l2 8q119 0 178.5 -60t59.5 -154q0 -28 -7 -69t-12 -70.5t-1 -39.5q8 -15 47 -16v-10q-36 -3 -44 -22q-4 -22 0 -43t10.5 -64.5t6.5 -72.5q0 -45 -12 -81.5t-37.5 -66.5t-70.5 -47t-106 -17l-2 8q17 4 30 11.5t21.5 15.5t14 21.5t8.5 24t4 29t1 30.5t-0.5 35.5 t-0.5 36.5q0 99 23.5 144t79.5 60q-39 12 -59.5 30.5t-32 61.5t-11.5 121v7q0 31 -0.5 46t-3 39t-8 37t-15.5 28t-25.5 24t-37.5 15z" />
<glyph unicode="~" horiz-adv-x="493" d="M35 213q-15 70 18 110t87 41q25 0 56.5 -15t56 -33.5t51 -34.5t42.5 -16q34 -1 52 25t1 69h59q19 -73 -17.5 -112t-94.5 -39q-25 0 -55 15t-54 33t-51 34t-46 17q-29 1 -43.5 -22.5t-4.5 -71.5h-57z" />
<glyph unicode="&#xa1;" horiz-adv-x="269" d="M58 0l18 323l36 171h47l35 -171l18 -323h-154zM64 639q0 30 21 51.5t51 21.5t51 -21.5t21 -51.5t-21 -51t-51 -21t-51 21t-21 51z" />
<glyph unicode="&#xa2;" horiz-adv-x="587" d="M29 347q0 128 85.5 199t236.5 71l7 84l41 -1l-7 -85q85 -8 142 -37v-137h-7q-32 121 -138 136l-38 -462q87 1 129.5 43.5t58.5 145.5h6l11 -130q-26 -44 -78.5 -70.5t-129.5 -26.5l-7 -86l-40 3l7 84q-130 10 -204.5 81t-74.5 188zM171 349q0 -98 36 -157.5t104 -73.5 l37 461q-88 -2 -132.5 -61.5t-44.5 -168.5z" />
<glyph unicode="&#xa3;" horiz-adv-x="603" d="M38 323l15 48h77q-10 325 247 343q42 3 78.5 -4t61 -21t39.5 -32l-40 -122h-10q3 142 -107 137q-41 -3 -66.5 -25t-37 -61t-14.5 -93.5t2 -121.5h181l-17 -48h-163q-1 -65 -11.5 -111t-30.5 -74t-41 -43.5t-53 -28.5q19 6 41.5 7t40.5 -1t48.5 -6t50.5 -6q50 -4 94.5 6.5 t87 43t68.5 86.5h10l-45 -172q-47 -21 -110.5 -29.5t-106.5 -2.5q-29 4 -97 20t-104 12q-14 -1 -41 -11.5t-34 -18.5h-10v10q34 44 61 124t29 195h-93z" />
<glyph unicode="&#xa4;" horiz-adv-x="541" d="M50 154l59 58q-53 61 -52.5 141t53.5 140l-60 60l21 21l60 -60q60 51 139.5 51t138.5 -52l61 61l22 -21l-62 -61q52 -60 52.5 -139t-51.5 -139l61 -60l-22 -22l-60 61q-59 -54 -139.5 -54t-140.5 52l-59 -59zM140 222.5q54 -53.5 129.5 -53.5t129 53.5t53.5 129.5 t-53.5 129.5t-129 53.5t-129.5 -53.5t-54 -129.5t54 -129.5z" />
<glyph unicode="&#xa5;" horiz-adv-x="702" d="M-31 690v10h331v-10h-13q-22 0 -34 -20.5t-1 -41.5l143 -260l149 260q11 21 -1.5 41.5t-34.5 20.5h-12v10h238v-10h-14q-30 0 -57 -17t-43 -41l-133 -211h107v-42h-133l-38 -61v-11h171v-42h-171v-192q0 -17 8.5 -31.5t23.5 -23t32 -8.5h12l1 -10h-304v10h13 q26 0 44.5 18.5t19.5 44.5v192h-173v42h173v12l-37 60h-136v42h111l-129 212q-15 24 -42.5 40.5t-56.5 16.5h-14z" />
<glyph unicode="&#xa6;" horiz-adv-x="257" d="M100 170h57v-350h-57v350zM100 350v350h57v-350h-57z" />
<glyph unicode="&#xa7;" horiz-adv-x="526" d="M77 -41q14 20 32 21.5t35.5 -10t38.5 -27t40 -29.5t40 -16.5t40 11.5q14 11 18.5 24t-1.5 31t-17.5 37t-34.5 45.5t-48 52t-62 61.5q-50 49 -79 104.5t-35 107.5t3 102t34.5 92t60 74.5t78.5 51.5t90 21q34 2 63 -4t47.5 -18t29.5 -27t10.5 -32t-12.5 -32 q-14 -18 -31 -19.5t-33.5 10t-35.5 26.5t-37 28.5t-38 16t-39 -10.5q-15 -11 -19.5 -25.5t4 -35.5t18.5 -38t34.5 -45.5t40.5 -46t48 -51.5l6 -6q54 -59 84.5 -125.5t35 -126.5t-11.5 -115.5t-50 -96.5t-84 -66.5t-110 -28.5q-34 -2 -65 4t-51.5 17.5t-34.5 27.5t-13.5 33 t11.5 33zM143 583q-22 -46 -26.5 -88t8.5 -82t40.5 -78.5t71.5 -81.5q84 -80 122.5 -144t25.5 -128q22 41 26 82t-11 82t-43 81t-72 84q-88 91 -116.5 142.5t-25.5 130.5z" />
<glyph unicode="&#xa8;" horiz-adv-x="600" d="M104 739q0 25 17.5 42.5t42.5 17.5t42.5 -17.5t17.5 -42.5t-17.5 -42.5t-42.5 -17.5t-42.5 17.5t-17.5 42.5zM337 739q0 25 17.5 42.5t42.5 17.5t42.5 -17.5t17.5 -42.5t-17.5 -42.5t-42.5 -17.5t-42.5 17.5t-17.5 42.5z" />
<glyph unicode="&#xa9;" horiz-adv-x="848" d="M60 350q0 99 48.5 183t132.5 132.5t183 48.5t183 -48.5t132.5 -132.5t48.5 -183t-48.5 -183t-132.5 -132.5t-183 -48.5t-183 48.5t-132.5 132.5t-48.5 183zM106 350q0 -86 42.5 -159.5t116 -116t159.5 -42.5t159.5 42.5t116 116t42.5 159.5t-42.5 159.5t-116 116 t-159.5 42.5t-159.5 -42.5t-116 -116t-42.5 -159.5zM191 350q0 96 69 159.5t174 63.5q44 0 91 -11.5t81 -31.5l2 -112h-6q-21 57 -63 88.5t-102 31.5q-62 0 -99.5 -51.5t-37.5 -136.5q0 -84 38 -135.5t101 -51.5q72 0 118 40t55 119h6l12 -103q-33 -44 -84 -68t-114 -24 q-104 1 -172.5 64.5t-68.5 158.5z" />
<glyph unicode="&#xaa;" horiz-adv-x="381" d="M-3 377v5h4q26 0 42 27l114 234q25 56 26 68h5l150 -300q17 -29 42 -29h5v-5h-173v5h4q11 0 18 8t2 21l-20 46h-109l-20 -44q-6 -14 1 -22.5t18 -8.5h4v-5h-113zM119 483h86l-42 95z" />
<glyph unicode="&#xab;" horiz-adv-x="506" d="M40 292l205 198l8 -5l-93 -193l94 -197l-9 -7zM233 292l205 198l8 -5l-93 -193l94 -197l-9 -7z" />
<glyph unicode="&#xac;" horiz-adv-x="600" d="M40 346v57h522v-208h-57v151h-465z" />
<glyph unicode="&#xad;" horiz-adv-x="380" d="M32 292l8 33h300l8 -33l-8 -34h-300z" />
<glyph unicode="&#xae;" horiz-adv-x="245" d="M10 588q0 47 33 80t80 33t80 -33t33 -80t-33 -80t-80 -33t-80 33t-33 80zM32 588q0 -38 26 -64.5t64.5 -26.5t65 26.5t26.5 64.5t-26.5 64.5t-65 26.5t-64.5 -26.5t-26 -64.5zM65 531v2h2q10 0 11 10v95q-1 10 -11 10h-2v2l61 1q19 0 31 -9t12 -24q0 -30 -30 -33 q9 -2 30 -33q10 -16 20 -19v-2h-16q-9 0 -15.5 2t-10.5 4.5t-9 8.5t-6.5 8.5t-5.5 11t-4 10.5q-7 13 -10 13v2h10q12 1 16 16q3 15 -2 24.5t-19 9.5h-11v-98q0 -10 11 -10h2v-2h-54z" />
<glyph unicode="&#xaf;" horiz-adv-x="600" d="M158 703v65h274v-65h-274z" />
<glyph unicode="&#xb0;" horiz-adv-x="244" d="M24 566q0 41 29 69.5t69 28.5q27 0 50 -13t36 -35.5t13 -49.5t-13 -49.5t-36 -36t-49.5 -13.5t-49.5 13.5t-36 36t-13 49.5zM75 566q0 -20 13.5 -34t33.5 -14t34 14t14 34t-14 33.5t-34 13.5t-33.5 -13.5t-13.5 -33.5z" />
<glyph unicode="&#xb1;" horiz-adv-x="481" d="M40 54v57h402v-57h-402zM40 351v57h172v173h57v-173h173v-57h-173v-172h-57v172h-172z" />
<glyph unicode="&#xb2;" horiz-adv-x="401" d="M34 672q16 15 39.5 25t50 15t53.5 5q70 0 116.5 -31.5t46.5 -84.5q0 -104 -167 -200h111q17 0 31 6t25.5 19t21.5 34h6l-38 -152h-295v6q15 17 50 57t53.5 63t42.5 56.5t34.5 63t10.5 57.5q0 37 -21 58t-55 19q-36 -3 -56 -32.5t-20 -82.5h-6z" />
<glyph unicode="&#xb3;" horiz-adv-x="348" d="M28 676q43 38 131 37q43 0 74 -11t48.5 -32.5t17.5 -51.5q0 -33 -23 -54.5t-54 -25.5q38 -6 65.5 -31.5t27.5 -69.5q0 -49 -27 -84t-68.5 -50.5t-92.5 -14.5t-99 21l1 5q49 -1 88.5 13t63.5 44t24 72q0 31 -16.5 51.5t-40 28.5t-52.5 9l1 6q42 -1 70.5 26t25.5 66 q-2 30 -21.5 43.5t-46.5 11.5q-23 -2 -37 -12.5t-20 -32.5t-6 -56h-6z" />
<glyph unicode="&#xb4;" horiz-adv-x="536" d="M202 751q44 74 144 164q49 -25 68 -81q-103 -65 -205 -90z" />
<glyph unicode="&#xb6;" horiz-adv-x="532" d="M50 517q1 83 57 133t139 50h174h7.5h8.5t9 0.5t10.5 2t10 3t12 5t12 8t13 10.5t13.5 14l7 -6q-9 -31 -37 -54.5t-70 -24.5v-511q0 -105 -60 -160l-9 8q14 24 20 49t6.5 40.5t0.5 60.5v513h-83v-658q0 -154 -98 -199l-7 9q41 42 52 78.5t8 111.5v333q-85 0 -141 50.5 t-55 133.5z" />
<glyph unicode="&#xb7;" horiz-adv-x="218" d="M37 353q0 30 21 51t51 21t51.5 -21t21.5 -51t-21.5 -51t-51.5 -21t-51 21t-21 51z" />
<glyph unicode="&#xb8;" horiz-adv-x="600" d="M227 -189l1 10q36 0 66 17.5t32 53.5q1 20 -15 31.5t-37 11t-40 -6.5l-5 10l48 63h48l-42 -49q15 5 33.5 5t37.5 -5t31.5 -21t11.5 -40q-3 -50 -57.5 -75t-112.5 -5z" />
<glyph unicode="&#xb9;" horiz-adv-x="260" d="M34 671v6q35 2 79.5 11.5t70.5 26.5h6v-369q0 -13 9.5 -22.5t22.5 -9.5h12v-6h-196v6h13q8 0 15.5 4.5t12 11.5t4.5 16v286q0 39 -37 39h-12z" />
<glyph unicode="&#xba;" horiz-adv-x="404" d="M24 543q0 77 48 122.5t130 45.5t130.5 -45.5t48.5 -122.5q0 -78 -48.5 -123.5t-130.5 -45.5t-130 45.5t-48 123.5zM119 543q0 -68 21.5 -106.5t61.5 -38.5q20 0 36 10t26.5 29t16 45.5t5.5 60.5q0 67 -22 106t-62 39t-61.5 -39t-21.5 -106z" />
<glyph unicode="&#xbb;" horiz-adv-x="506" d="M60 95l95 197l-94 193l8 5l205 -198l-205 -204zM253 95l95 197l-94 193l8 5l205 -198l-205 -204z" />
<glyph unicode="&#xbc;" horiz-adv-x="747" d="M36 671v6q35 2 79.5 11.5t70.5 26.5h5v-369q0 -13 10 -22.5t23 -9.5h12v-6h-196v6h13q13 0 22.5 9.5t9.5 22.5v286q0 39 -37 39h-12zM112 8l478 711l38 -25l-478 -712zM353 107v6l289 294h5v-243h28q27 0 39 22h6l-18 -79h-54v-68q0 -14 10 -23.5t24 -9.5h7v-6h-188v6h7 q14 0 24 9t11 23v69h-190zM447 164h96v97z" />
<glyph unicode="&#xbd;" horiz-adv-x="832" d="M36 671v6q35 2 79.5 11.5t69.5 26.5h6v-369q0 -13 10 -22.5t23 -9.5h12v-6h-196v6h12q9 0 16.5 4.5t12 11.5t4.5 16v286q0 39 -37 39h-12zM98 8l478 711l38 -25l-478 -712zM458 365q24 21 63 32.5t81 11.5q45 0 82 -13.5t58.5 -40.5t21.5 -62q0 -104 -166 -200h110 q18 0 31.5 6t25 19t22.5 35h6l-38 -153h-296v6q15 17 42 48t44.5 51t39.5 49t34.5 51t22 48.5t9.5 49.5q0 37 -21.5 58t-55.5 19q-36 -3 -56 -32.5t-20 -82.5h-5z" />
<glyph unicode="&#xbe;" horiz-adv-x="789" d="M31 676q43 38 131 37q25 0 47 -4t39 -12t29 -19.5t18 -26.5t6 -33q0 -33 -22.5 -54.5t-53.5 -24.5q38 -7 65.5 -32.5t27.5 -69.5q0 -49 -27 -84t-68.5 -50.5t-92.5 -14.5t-99 21l1 5q76 -1 126 32.5t50 96.5q0 31 -16.5 51.5t-40 28.5t-52.5 9l1 6q42 -1 70.5 26t25.5 66 q-2 30 -21.5 43.5t-46.5 11.5q-34 -3 -49 -26.5t-14 -74.5h-6zM170 8l479 711l38 -25l-478 -712zM404 107v6l288 294h6v-243h27q27 0 39 22h6l-18 -79h-54v-68q0 -14 10.5 -23.5t24.5 -9.5h6v-6h-187v6h6q14 0 24 9t11 23v69h-189zM497 164h96v97z" />
<glyph unicode="&#xbf;" horiz-adv-x="487" d="M38 160q0 36 16 69t35 53t54 53.5t54 54.5q14 16 20.5 24t13.5 22.5t5 29t-12 31.5l7 6q39 -17 60.5 -46t18.5 -67q-2 -24 -14 -45.5t-28.5 -39.5t-32.5 -38t-26.5 -48.5t-10.5 -63.5q0 -61 27 -94t76 -33q52 0 80.5 39t28.5 115h10l34 -107q-23 -41 -74 -65t-118 -24 q-107 0 -165.5 46t-58.5 128zM182 638q0 30 21 51t51 21q19 0 36 -9.5t26.5 -26.5t9.5 -36q1 -30 -20.5 -51.5t-51.5 -21.5t-51 21.5t-21 51.5z" />
<glyph unicode="&#xc0;" d="M-28 0v10h9q23 0 46 14t38 42l231 523q47 99 50 131h9l297 -652q10 -20 25 -33t30 -19t30 -6h9v-10h-319v10h9q22 0 35.5 17.5t2.5 45.5l-49 123h-234l-52 -123q-8 -20 -3 -34t16.5 -21.5t25.5 -7.5h8v-10h-214zM159 854q20 57 68 81q102 -91 144 -164l-7 -7 q-100 24 -205 90zM208 238h200l-97 246z" />
<glyph unicode="&#xc1;" d="M-28 0v10h9q23 0 46 14t38 42l231 523q47 99 50 131h9l297 -652q15 -29 38 -43.5t47 -14.5h9v-10h-319v10h9q22 0 35.5 17.5t2.5 45.5l-49 123h-234l-52 -123q-11 -28 3 -45.5t36 -17.5h8v-10h-214zM208 238h200l-97 246zM335 769q43 74 143 164q49 -25 68 -81 q-103 -65 -204 -90z" />
<glyph unicode="&#xc2;" d="M-28 0v10h9q23 0 46 14t38 42l231 523q47 99 50 131h9l297 -652q10 -20 25 -33t30 -19t30 -6h9v-10h-319v10h9q22 0 35.5 17.5t2.5 45.5l-49 123h-234l-52 -123q-8 -20 -3 -34t16.5 -21.5t25.5 -7.5h8v-10h-214zM201 762l144 153h12l153 -153l-7 -8l-152 65l-143 -65z M208 238h200l-97 246z" />
<glyph unicode="&#xc3;" d="M-28 0v10h9q23 0 46 14t38 42l231 523q47 99 50 131h9l297 -652q15 -29 38 -43.5t47 -14.5h9v-10h-319v10h9q22 0 35.5 17.5t2.5 45.5l-49 123h-234l-52 -123q-11 -28 3 -45.5t36 -17.5h8v-10h-214zM201 767q-5 46 20.5 89t75.5 43q28 0 73 -23.5t73 -25.5q26 -3 48 10 t29 29h11q10 -41 -17 -83t-79 -42q-30 0 -76 23.5t-70 26.5q-26 3 -47.5 -12t-29.5 -35h-11zM208 238h200l-97 246z" />
<glyph unicode="&#xc4;" d="M-28 0v10h9q23 0 46 14t38 42l231 523q47 99 50 131h9l297 -652q15 -29 38 -43.5t47 -14.5h9v-10h-319v10h9q22 0 35.5 17.5t2.5 45.5l-49 123h-234l-52 -123q-11 -28 2.5 -45.5t36.5 -17.5h8v-10h-214zM173 819q0 25 17.5 42.5t42.5 17.5t42.5 -17.5t17.5 -42.5 t-17.5 -42.5t-42.5 -17.5t-42.5 17.5t-17.5 42.5zM208 238h200l-97 246zM406 819q0 25 18 42.5t42.5 17.5t42.5 -17.5t18 -42.5t-18 -42.5t-42.5 -17.5t-42.5 17.5t-18 42.5z" />
<glyph unicode="&#xc5;" d="M-28 0v10h9q24 0 48 15.5t38 45.5l229 512q35 73 46 114q-36 2 -60.5 22t-24.5 50q0 31 27 51.5t67 20.5t66.5 -19.5t26.5 -52.5q0 -29 -23.5 -49t-58.5 -23l287 -624q16 -32 39.5 -47.5t48.5 -15.5h9v-10h-319v10h9q22 0 35.5 17.5t2.5 45.5l-50 123h-233l-52 -123 q-11 -28 3 -45.5t36 -17.5h8v-10h-214zM209 238h198l-97 241zM307 769q0 -23 12.5 -38t30.5 -15q19 0 31.5 15t12.5 38q0 15 -5.5 27t-15.5 18.5t-23 6.5q-18 0 -30.5 -14.5t-12.5 -37.5z" />
<glyph unicode="&#xc6;" horiz-adv-x="971" d="M-24 0v10h8q47 0 88 60l385 577q10 17 3 30t-25 13h-4v10h335q31 0 68 6t51 12v-169h-10v10q0 44 -25.5 70.5t-69.5 27.5h-164v-297h128q36 2 59.5 26t23.5 60v9h10v-231h-10v9q0 35 -23 59t-58 26h-130v-275h133q44 0 81 18.5t63.5 52.5t41.5 81h10l-45 -195h-494l1 10 h9q20 0 34.5 14t15.5 34v260h-160l-150 -247q-14 -27 -1.5 -44.5t34.5 -16.5h10v-10h-223zM332 360h134v221z" />
<glyph unicode="&#xc7;" horiz-adv-x="780" d="M45 351q0 168 109 265.5t299 97.5q145 0 249 -54l2 -172h-8q-51 184 -233 184q-118 0 -186.5 -85.5t-68.5 -233.5t65.5 -235t177.5 -90q59 0 101.5 13.5t75 44.5t53.5 81.5t33 124.5h8l10 -172q-81 -134 -283 -134l-38 -43q15 5 33.5 5t37.5 -5t31.5 -21t11.5 -40 q-3 -50 -57.5 -75.5t-112.5 -5.5l1 10q36 0 66 18t32 54q1 20 -15 31.5t-36.5 11t-40.5 -6.5l-5 10l46 59q-166 13 -262 109t-96 254z" />
<glyph unicode="&#xc8;" horiz-adv-x="631" d="M42 0v10h13q26 0 44.5 18.5t19.5 44.5v557q-1 13 -6.5 24t-14 19t-20 12.5t-23.5 4.5h-13v10h383q31 0 68 6t52 12v-175h-10v12q0 30 -12 52.5t-34 35.5t-52 14h-168v-291h132q37 1 61 25.5t24 60.5v9h10v-231h-10v8q0 24 -10.5 43.5t-30 30.5t-42.5 12h-134v-281h131 q73 0 122.5 42t73.5 119h10l-46 -204h-518zM131 854q19 57 67 81q102 -91 144 -164l-7 -7q-100 24 -204 90z" />
<glyph unicode="&#xc9;" horiz-adv-x="631" d="M42 0v10h13q26 0 44.5 18.5t19.5 44.5v557q-1 13 -6.5 24t-14 19t-20 12.5t-23.5 4.5h-13v10h383q31 0 68 6t52 12v-175l-10 1v11q0 30 -12 52.5t-34 35.5t-52 14h-168v-291h132q37 1 61 25.5t24 60.5v9h10v-231h-10v8q0 37 -23.5 61t-59.5 25h-134v-281h131 q73 0 122.5 42t73.5 119h10l-46 -204h-518zM306 769q43 74 144 164q48 -25 67 -81q-102 -65 -204 -90z" />
<glyph unicode="&#xca;" horiz-adv-x="631" d="M42 0v10h13q26 0 44.5 18.5t19.5 44.5v557q-1 13 -6.5 24t-14 19t-20 12.5t-23.5 4.5h-13v10h383q31 0 68 6t52 12v-175l-10 1v11q0 45 -26.5 72.5t-71.5 29.5h-168v-291h132q37 1 61 25.5t24 60.5v9h10v-231h-10v8q0 37 -23.5 61t-59.5 25h-134v-281h131q73 0 122.5 42 t73.5 119h10l-46 -204h-518zM172 762l145 153h11l153 -153l-7 -8l-152 65l-143 -65z" />
<glyph unicode="&#xcb;" horiz-adv-x="631" d="M42 0v10h13q26 0 44.5 18.5t19.5 44.5v557q-1 13 -6.5 24t-14 19t-20 12.5t-23.5 4.5h-13v10h383q16 0 34.5 2t35 4.5t30 5.5t20.5 6v-175l-10 1v11q0 30 -12 52.5t-34 35.5t-52 14h-168v-291h132q37 1 61 25.5t24 60.5v9h10v-231h-10v8q0 24 -10.5 43.5t-30 30.5 t-42.5 12h-134v-281h131q73 0 122.5 42t73.5 119h10l-46 -204h-518zM144 819q0 25 17.5 42.5t42.5 17.5t42.5 -17.5t17.5 -42.5t-17.5 -42.5t-42.5 -17.5t-42.5 17.5t-17.5 42.5zM378 819q0 25 17.5 42.5t42 17.5t42.5 -17.5t18 -42.5t-18 -42.5t-42.5 -17.5t-42 17.5 t-17.5 42.5z" />
<glyph unicode="&#xcc;" horiz-adv-x="386" d="M7 854q19 57 67 81q102 -91 144 -164l-7 -7q-100 24 -204 90zM42 0v10h13q26 0 44.5 18.5t19.5 44.5v555q-1 17 -9.5 31t-23 22.5t-31.5 8.5h-13v10h304l-1 -10h-12q-26 0 -45 -18t-19 -44v-555q0 -26 19 -44.5t45 -18.5h12l1 -10h-304z" />
<glyph unicode="&#xcd;" horiz-adv-x="386" d="M42 0v10h13q26 0 44.5 18.5t19.5 44.5v555q-1 26 -19.5 44t-44.5 18h-13v10h304l-1 -10h-12q-26 0 -45 -18t-19 -44v-555q0 -17 8.5 -31.5t23.5 -23t32 -8.5h12l1 -10h-304zM176 769q43 74 143 164q49 -25 68 -81q-102 -65 -204 -90z" />
<glyph unicode="&#xce;" horiz-adv-x="386" d="M42 0v10h13q26 0 44.5 18.5t19.5 44.5v555q-1 17 -9.5 31t-23 22.5t-31.5 8.5h-13v10h304l-1 -10h-12q-26 0 -45 -18t-19 -44v-555q0 -26 19 -44.5t45 -18.5h12l1 -10h-304zM42 762l145 153h11l153 -153l-7 -8l-152 65l-143 -65z" />
<glyph unicode="&#xcf;" horiz-adv-x="386" d="M14 819q0 25 17.5 42.5t42.5 17.5t42.5 -17.5t17.5 -42.5t-17.5 -42.5t-42.5 -17.5t-42.5 17.5t-17.5 42.5zM42 0v10h13q26 0 44.5 18.5t19.5 44.5v555q-1 17 -9.5 31t-23 22.5t-31.5 8.5h-13v10h304l-1 -10h-12q-26 0 -45 -18t-19 -44v-555q0 -26 19 -44.5t45 -18.5h12 l1 -10h-304zM247 819q0 25 18 42.5t42.5 17.5t42.5 -17.5t18 -42.5t-18 -42.5t-42.5 -17.5t-42.5 17.5t-18 42.5z" />
<glyph unicode="&#xd0;" horiz-adv-x="828" d="M42 329v42h79v262q0 24 -19.5 40.5t-44.5 16.5h-13v10h363q87 0 158.5 -24.5t120.5 -69.5t75.5 -110.5t26.5 -145.5q0 -162 -102 -256t-279 -94h-363v10h13q26 0 44.5 18.5t19.5 44.5v256h-79zM271 42h123q108 0 172 83t64 225t-64 225t-172 83h-123v-287h129v-42h-129 v-287z" />
<glyph unicode="&#xd1;" horiz-adv-x="865" d="M30 0v10h18q26 0 44 17.5t18 43.5v519q0 33 -3 64.5t-6 45.5l-2 15h9l505 -481v395q-1 26 -19 43.5t-43 17.5h-18v10h303v-10h-19q-25 0 -43 -17.5t-19 -42.5v-516q0 -34 3 -66t6 -47l3 -15h-9l-505 481v-397q0 -16 8.5 -30t22.5 -22t30 -8h19v-10h-303zM266 767 q-5 46 21 89t76 43q22 0 46 -11t50 -23.5t49 -14.5q27 -3 49 10t28 29h12q9 -41 -18 -83t-79 -42q-29 0 -75.5 23.5t-69.5 26.5q-18 2 -34.5 -5t-27 -18t-15.5 -24h-12z" />
<glyph unicode="&#xd2;" horiz-adv-x="878" d="M45 350q0 168 106.5 266t287 98t287 -98t106.5 -266t-106.5 -266t-287 -98t-287 98t-106.5 266zM206 350q0 -149 62 -235.5t170.5 -86.5t170.5 86.5t62 235.5q0 99 -28 171.5t-80.5 111.5t-124.5 39q-108 0 -170 -86.5t-62 -235.5zM246 862q19 57 67 82q102 -91 144 -165 l-7 -7q-100 24 -204 90z" />
<glyph unicode="&#xd3;" horiz-adv-x="878" d="M49 350q0 168 106.5 266t287 98t287 -98t106.5 -266t-106.5 -266t-287 -98t-287 98t-106.5 266zM213 350q0 -149 61.5 -235.5t167.5 -86.5t168 86.5t62 235.5t-62 235.5t-168 86.5t-167.5 -86.5t-61.5 -235.5zM425 778q43 74 144 164q48 -25 67 -81q-102 -66 -204 -90z " />
<glyph unicode="&#xd4;" horiz-adv-x="878" d="M49 350q0 168 106.5 266t286.5 98q120 0 208.5 -44t137 -126.5t48.5 -193.5q0 -168 -106.5 -266t-287 -98t-287 98t-106.5 266zM213 350q0 -149 61.5 -235.5t167.5 -86.5t168 86.5t62 235.5t-62 235.5t-168 86.5t-167.5 -86.5t-61.5 -235.5zM291 771l145 153h11l153 -154 l-7 -8l-152 66l-143 -65z" />
<glyph unicode="&#xd5;" horiz-adv-x="878" d="M49 350q0 168 106.5 266t287 98t287 -98t106.5 -266t-106.5 -266t-287 -98t-287 98t-106.5 266zM213 350q0 -149 61.5 -235.5t167.5 -86.5t168 86.5t62 235.5t-62 235.5t-168 86.5t-167.5 -86.5t-61.5 -235.5zM291 776q-5 45 20.5 88t75.5 43q28 0 73 -23t73 -26 q26 -3 48 10t29 30h11q10 -42 -17 -84t-79 -41q-30 0 -76 23.5t-70 26.5q-25 3 -46.5 -12t-30.5 -35h-11z" />
<glyph unicode="&#xd6;" horiz-adv-x="878" d="M49 350q0 168 106.5 266t287 98t287 -98t106.5 -266t-106.5 -266t-287 -98t-287 98t-106.5 266zM213 350q0 -149 61.5 -235.5t167.5 -86.5t168 86.5t62 235.5t-62 235.5t-168 86.5t-167.5 -86.5t-61.5 -235.5zM263 827.5q0 24.5 17.5 42.5t42.5 18t42.5 -18t17.5 -42.5 t-17.5 -42.5t-42.5 -18t-42.5 18t-17.5 42.5zM496 827.5q0 24.5 18 42.5t42.5 18t42.5 -18t18 -42.5t-18 -42.5t-42.5 -18t-42.5 18t-18 42.5z" />
<glyph unicode="&#xd7;" horiz-adv-x="411" d="M44 188l122 122l-122 122l40 40l122 -122l122 122l40 -40l-121 -122l121 -122l-40 -40l-122 121l-122 -121z" />
<glyph unicode="&#xd8;" horiz-adv-x="874" d="M45 350q0 168 105.5 266t285.5 98q130 0 224 -52l53 63l37 -30l-51 -60q129 -98 129 -285q0 -168 -105.5 -266t-286.5 -98q-139 0 -236 60l-59 -69l-36 31l56 66q-116 99 -116 276zM204 350q0 -109 34 -186l363 429q-61 79 -165 79q-108 0 -170 -86.5t-62 -235.5z M262 120q62 -92 174 -92q109 0 171 86.5t62 235.5q0 120 -41 201z" />
<glyph unicode="&#xd9;" horiz-adv-x="821" d="M38 690v10h288v-10h-16q-22 0 -37 -13.5t-16 -34.5v-382q0 -106 52 -168t142 -62q61 0 105.5 26t69 75.5t24.5 115.5v395q-1 21 -16.5 34.5t-36.5 13.5h-16v10h209v-10h-16q-22 0 -37 -13.5t-16 -33.5v-390q0 -123 -77 -195t-211 -72q-158 0 -242 70.5t-84 195.5v388 q0 22 -15.5 36t-37.5 14h-16zM259 854q19 57 67 81q102 -91 144 -164l-7 -7q-100 24 -204 90z" />
<glyph unicode="&#xda;" horiz-adv-x="821" d="M38 690v10h288v-10h-16q-22 0 -37 -13.5t-16 -34.5v-382q0 -106 52 -168t142 -62q92 0 145 58.5t54 158.5v395q-1 21 -16.5 34.5t-36.5 13.5h-16v10h209v-10h-17q-21 0 -36 -13.5t-16 -33.5v-390q0 -123 -77 -195t-211 -72q-158 0 -242 70.5t-84 195.5v389q0 21 -15.5 35 t-37.5 14h-16zM434 769q43 74 144 164q48 -25 67 -81q-102 -65 -204 -90z" />
<glyph unicode="&#xdb;" horiz-adv-x="821" d="M38 690v10h288v-10h-16q-22 0 -37 -13.5t-16 -34.5v-382q0 -106 52 -168t142 -62q61 0 105.5 26t69 75.5t24.5 115.5v395q-1 21 -16.5 34.5t-36.5 13.5h-16v10h209v-10h-16q-22 0 -37 -13.5t-16 -33.5v-390q0 -123 -77 -195t-211 -72q-158 0 -242 70.5t-84 195.5v388 q0 22 -15.5 36t-37.5 14h-16zM300 762l145 153h11l153 -153l-7 -8l-152 65l-143 -65z" />
<glyph unicode="&#xdc;" horiz-adv-x="821" d="M38 690v10h288v-10h-16q-22 0 -37 -13.5t-16 -34.5v-382q0 -106 52 -168t142 -62q92 0 145 58.5t54 158.5v395q-1 21 -16.5 34.5t-36.5 13.5h-16v10h209v-10h-17q-6 0 -13 -1.5t-12.5 -4.5t-10.5 -7.5t-8.5 -9.5t-5.5 -11t-2 -13v-390q0 -123 -77 -195t-211 -72 q-158 0 -242 70.5t-84 195.5v388q0 22 -15.5 36t-37.5 14h-16zM272 819q0 25 17.5 42.5t42.5 17.5t42.5 -17.5t17.5 -42.5t-17.5 -42.5t-42.5 -17.5t-42.5 17.5t-17.5 42.5zM506 819q0 25 17.5 42.5t42 17.5t42.5 -17.5t18 -42.5t-18 -42.5t-42.5 -17.5t-42 17.5t-17.5 42.5 z" />
<glyph unicode="&#xdd;" horiz-adv-x="702" d="M-31 690v10h331v-10h-13q-22 0 -34 -20.5t-1 -41.5l143 -260l149 260q11 21 -1.5 41.5t-34.5 20.5h-12v10h238v-10h-14q-30 0 -57 -17t-43 -41l-197 -314v-245q0 -26 19 -44.5t45 -18.5h12l1 -10h-304v10h13q26 0 44.5 18t19.5 44v247l-191 314q-15 24 -42.5 40.5 t-56.5 16.5h-14zM380 769q43 74 144 164q49 -25 68 -81q-103 -65 -205 -90z" />
<glyph unicode="&#xde;" horiz-adv-x="646" d="M43 0v10h12q27 0 45.5 18.5t19.5 44.5v555q-1 17 -9.5 31t-23 22.5t-32.5 8.5h-12v10h303v-10h-12q-26 0 -45 -18t-19 -44v-74h102q63 0 110.5 -14.5t76.5 -41t43.5 -60.5t16.5 -76q1 -50 -17.5 -93t-52 -70t-74.5 -40t-87.5 -6t-88.5 34v10q55 -5 100 29q40 29 55 85 q8 28 6 60q-1 32 -10 58t-25 44.5t-40 28.5t-53 10h-62v-439q0 -17 8.5 -31.5t23 -23t32.5 -8.5h12v-10h-303z" />
<glyph unicode="&#xdf;" horiz-adv-x="1029" d="M52 40q-11 30 -3.5 76.5t26.5 76.5h8q-5 -70 41 -118t124 -48q56 0 86 26t30 65q0 12 -4.5 23.5t-14 22t-23 21t-33.5 23.5l-142 90q-100 63 -89 163q6 71 55 111.5t126 40.5q56 0 130 -9h54l-14 -132h-9q0 47 -32.5 74t-91.5 27q-48 0 -78 -21.5t-31 -56.5 q-2 -17 8 -32.5t21.5 -24t34.5 -22.5l159 -98q88 -54 82 -150q-5 -84 -68 -132.5t-167 -48.5q-64 0 -113 15t-72 38zM567 40q-11 30 -3.5 76.5t26.5 76.5h8q-5 -70 41 -118t124 -48q56 0 86 26t30 65q0 12 -4.5 23.5t-14 22t-23 21t-33.5 23.5l-143 90q-99 63 -88 163 q6 71 54.5 111.5t125.5 40.5q57 0 130 -9h55l-14 -132h-9q0 47 -32.5 74t-91.5 27q-48 0 -78 -21.5t-32 -56.5q-1 -13 3 -24t15 -21.5t20 -17t27 -16.5l158 -98q89 -54 83 -150q-5 -84 -68 -132.5t-167 -48.5q-64 0 -113.5 15t-71.5 38z" />
<glyph unicode="&#xe0;" horiz-adv-x="644" d="M-27 0v10h8q21 0 42 13t34 39l207 444q44 99 46 122h9l268 -562q13 -29 34.5 -42.5t43.5 -13.5h8v-10h-294v10h8q20 0 32 15.5t2 39.5l-39 92h-212l-40 -93q-9 -24 3 -39t32 -15h8v-10h-200zM123 754q19 57 68 81q101 -91 143 -164l-7 -7q-100 24 -204 90zM187 196h178 l-88 209z" />
<glyph unicode="&#xe1;" horiz-adv-x="644" d="M-27 0v10h8q21 0 42 13t34 39l207 444q44 99 46 122h9l268 -562q9 -19 22.5 -32t27.5 -18.5t28 -5.5h8v-10h-294v10h8q20 0 32 15.5t2 40.5l-39 91h-212l-40 -93q-9 -24 3 -39t32 -15h8v-10h-200zM187 196h178l-88 209zM298 669q43 74 144 164q48 -25 68 -81 q-103 -65 -205 -90z" />
<glyph unicode="&#xe2;" horiz-adv-x="644" d="M-27 0v10h8q21 0 42 13t34 39l207 444q44 99 46 122h9l268 -562q13 -29 34.5 -42.5t43.5 -13.5h8v-10h-294v10h8q20 0 32 15.5t2 39.5l-39 92h-212l-40 -93q-9 -24 3 -39t32 -15h8v-10h-200zM165 662l144 153h11l153 -153l-6 -8l-153 65l-143 -65zM187 196h178l-88 209z " />
<glyph unicode="&#xe3;" horiz-adv-x="644" d="M-27 0v10h8q21 0 42 13t34 39l207 444q44 99 46 122h9l268 -562q13 -29 34.5 -42.5t43.5 -13.5h8v-10h-294v10h8q20 0 32 15.5t2 40.5l-39 91h-212l-40 -93q-9 -24 3 -39t32 -15h8v-10h-200zM164 667q-5 46 21 89t76 43q27 0 72.5 -23.5t72.5 -25.5q27 -3 49 10t28 29h12 q5 -25 -3.5 -53.5t-33.5 -50t-60 -21.5q-29 0 -75.5 23.5t-69.5 26.5q-18 2 -34.5 -5t-27 -18t-15.5 -24h-12zM187 196h178l-88 209z" />
<glyph unicode="&#xe4;" horiz-adv-x="644" d="M-27 0v10h8q21 0 42 13t34 39l207 444q44 99 46 122h9l268 -562q13 -29 34.5 -42.5t43.5 -13.5h8v-10h-294v10h8q20 0 32 15.5t2 40.5l-39 91h-212l-40 -93q-9 -24 3 -39t32 -15h8v-10h-200zM136 719q0 25 18 42.5t42.5 17.5t42.5 -17.5t18 -42.5t-18 -42.5t-42.5 -17.5 t-42.5 17.5t-18 42.5zM187 196h178l-88 209zM370 719q0 25 17.5 42.5t42.5 17.5t42.5 -17.5t17.5 -42.5t-17.5 -42.5t-42.5 -17.5t-42.5 17.5t-17.5 42.5z" />
<glyph unicode="&#xe5;" horiz-adv-x="644" d="M-27 0v10h8q21 0 42 13t34 39l207 444q44 99 46 122h9l268 -562q13 -29 34.5 -42.5t43.5 -13.5h8v-10h-294v10h8q19 0 31.5 15.5t2.5 40.5l-39 91h-212l-40 -93q-9 -24 3 -39t32 -15h8v-10h-200zM187 196h178l-88 209zM206 747q0 36 31.5 60t77.5 24q47 0 77.5 -23 t30.5 -59q0 -37 -31 -61t-77 -24q-31 0 -56 10.5t-39 29.5t-14 43zM265 747q0 -26 14 -42t36 -16t36 16t14 42t-14 42.5t-36 16.5q-14 0 -25.5 -7t-18 -20.5t-6.5 -31.5z" />
<glyph unicode="&#xe6;" horiz-adv-x="864" d="M-21 0v10h7q41 0 78 52l341 491q9 15 3 26.5t-22 11.5h-4v9h310q27 0 58.5 5t44.5 10v-154h-9v9q0 26 -10.5 46t-30.5 31t-46 12h-144v-249h114q33 2 54 23.5t21 54.5v7h9v-207h-9v5q0 22 -9.5 39t-26.5 27.5t-38 11.5h-115v-231h119q58 0 101 36t62 99h9l-37 -175h-447 v10h9q11 0 20.5 5t15.5 14.5t6 20.5v221h-141l-136 -215q-5 -11 -3.5 -19.5t7 -14.5t13 -9t16.5 -3h8v-10h-198zM297 310h116v185z" />
<glyph unicode="&#xe7;" horiz-adv-x="682" d="M34 300q0 147 95.5 230t264.5 83q132 0 225 -46v-159h-7q-25 89 -77 127t-131 38q-106 0 -162 -72.5t-56 -198.5q0 -125 55 -199t153 -76q72 0 118.5 22t73.5 70.5t40 131.5h7l12 -151q-31 -50 -92.5 -81t-151.5 -32l-40 -45q15 5 34 5t37.5 -5.5t31 -21.5t11.5 -40 q-2 -50 -57 -75t-113 -5l1 10q36 0 66 17.5t32 53.5q1 20 -14.5 31.5t-36.5 11.5t-41 -6l-5 10l47 61q-150 10 -235 91.5t-85 219.5z" />
<glyph unicode="&#xe8;" horiz-adv-x="563" d="M34 0v10h12q23 0 38.5 15t16.5 37v476q-1 22 -16.5 37t-38.5 15h-12v10h352q27 0 59 5t45 10v-159h-10v9q0 44 -24 69t-67 26h-144v-243h114q34 1 55 23t21 56v7h10v-212h-10v7q0 23 -9 40.5t-26.5 28t-39.5 10.5h-115v-237h120q62 1 105.5 38.5t63.5 105.5h9l-38 -184 h-471zM99 754q19 57 68 81q101 -90 143 -164l-7 -7q-100 24 -204 90z" />
<glyph unicode="&#xe9;" horiz-adv-x="563" d="M34 0v10h12q23 0 38.5 15t16.5 37v476q-1 22 -16.5 37t-38.5 15h-12v10h352q27 0 59 5t45 10v-159h-10v9q0 44 -24 69t-67 26h-144v-243h114q34 1 55 23t21 57v6h10v-212h-10v7q0 23 -9 40.5t-26.5 28t-39.5 10.5h-115v-237h120q62 1 105.5 38.5t63.5 105.5h9l-38 -184 h-471zM274 669q43 74 144 165q48 -26 68 -82q-103 -65 -205 -90z" />
<glyph unicode="&#xea;" horiz-adv-x="563" d="M34 0v10h12q23 0 38.5 15t16.5 37v476q-1 22 -16.5 37t-38.5 15h-12v10h352q27 0 59 5t45 10v-159h-10v9q0 44 -24 69t-67 26h-144v-243h114q34 1 55 23t21 56v7h10v-212h-10v7q0 22 -9 40t-26.5 28.5t-39.5 10.5h-115v-237h120q62 1 105.5 38.5t63.5 105.5h9l-38 -184 h-471zM141 662l144 154h11l153 -154l-6 -8l-153 65l-143 -65z" />
<glyph unicode="&#xeb;" horiz-adv-x="563" d="M34 0v10h12q23 0 38.5 15t16.5 37v476q-1 22 -16.5 37t-38.5 15h-12v10h352q27 0 59 5t45 10v-159h-10v9q0 44 -24 69t-67 26h-144v-243h114q34 1 55 23t21 56v7h10v-212h-10v7q0 23 -9 40.5t-26.5 28t-39.5 10.5h-115v-237h120q62 1 105.5 38.5t63.5 105.5h9l-38 -184 h-471zM112 719q0 25 18 42.5t42.5 17.5t42.5 -17.5t18 -42.5t-18 -42.5t-42.5 -17.5t-42.5 17.5t-18 42.5zM346 719q0 25 17.5 42.5t42.5 17.5t42.5 -17.5t17.5 -42.5t-17.5 -42.5t-42.5 -17.5t-42.5 17.5t-17.5 42.5z" />
<glyph unicode="&#xec;" horiz-adv-x="340" d="M-24 754q21 57 68 81q102 -90 144 -164l-7 -7q-100 24 -205 90zM34 0v10h11q22 0 37.5 15.5t15.5 37.5v474q0 22 -15.5 37.5t-37.5 15.5h-11v10h272v-10h-10q-22 0 -37.5 -15t-16.5 -38v-474q1 -23 16.5 -38t37.5 -15h10v-10h-272z" />
<glyph unicode="&#xed;" horiz-adv-x="340" d="M34 0v10h11q22 0 37.5 15.5t15.5 37.5v474q0 22 -15.5 37.5t-37.5 15.5h-11v10h272v-10h-10q-22 0 -37.5 -15t-16.5 -38v-474q1 -23 16.5 -38t37.5 -15h10v-10h-272zM152 669q43 74 143 165q49 -25 68 -82q-102 -65 -204 -90z" />
<glyph unicode="&#xee;" horiz-adv-x="340" d="M18 662l145 154h11l153 -154l-7 -8l-152 65l-143 -65zM34 0v10h11q22 0 37.5 15.5t15.5 37.5v474q0 22 -15.5 37.5t-37.5 15.5h-11v10h272v-10h-10q-22 0 -37.5 -15t-16.5 -38v-474q1 -23 16.5 -38t37.5 -15h10v-10h-272z" />
<glyph unicode="&#xef;" horiz-adv-x="340" d="M-10 719q0 25 17.5 42.5t42.5 17.5t42.5 -17.5t17.5 -42.5t-17.5 -42.5t-42.5 -17.5q-16 0 -30 8t-22 22t-8 30zM34 0v10h11q22 0 37.5 15.5t15.5 37.5v474q0 22 -15.5 37.5t-37.5 15.5h-11v10h272v-10h-10q-22 0 -37.5 -15t-16.5 -38v-474q1 -23 16.5 -38t37.5 -15h10 v-10h-272zM223 719q0 25 18 42.5t42.5 17.5t42.5 -17.5t18 -42.5t-18 -42.5t-42.5 -17.5t-42.5 17.5t-18 42.5z" />
<glyph unicode="&#xf0;" horiz-adv-x="748" d="M33 590v10h338q106 0 183.5 -35.5t118.5 -103.5t41 -161q0 -141 -91 -220.5t-252 -79.5h-338v10h13q23 0 39 15.5t17 37.5v218h-66v39h66v218q-1 15 -8.5 27t-20.5 18.5t-28 6.5h-12zM246 40h113q94 0 148.5 69t54.5 191t-54.5 191.5t-148.5 69.5h-113v-241h126v-39h-126 v-241z" />
<glyph unicode="&#xf1;" horiz-adv-x="779" d="M21 0v10h16q23 0 39 14.5t16 36.5v440q0 30 -2.5 58t-5.5 41l-2 14l9 -1l458 -403v329q0 14 -7 26t-19.5 18.5t-27.5 6.5h-17v10h281v-10h-17q-23 0 -38.5 -14t-16.5 -36v-437q0 -31 2.5 -60t5.5 -42l2 -14h-8l-460 405v-331q0 -14 7.5 -26t20 -18.5t27.5 -6.5h17v-10 h-280zM221 667q-5 46 21 89t76 43q22 0 46 -11t49.5 -23.5t49.5 -14.5q27 -3 48.5 10t28.5 29h12q9 -41 -18 -83t-79 -42q-29 0 -75.5 23.5t-69.5 26.5q-26 3 -47.5 -12t-29.5 -35h-12z" />
<glyph unicode="&#xf2;" horiz-adv-x="777" d="M35 300q0 144 96.5 228.5t256.5 84.5q161 0 258 -84.5t97 -228.5t-97 -228.5t-258 -84.5q-159 0 -256 84.5t-97 228.5zM188 300q0 -126 54.5 -199.5t145.5 -73.5q92 0 146.5 73.5t54.5 199.5t-54.5 199.5t-146.5 73.5q-91 0 -145.5 -73.5t-54.5 -199.5zM196 754 q20 57 68 82q102 -91 144 -164l-7 -8q-100 24 -205 90z" />
<glyph unicode="&#xf3;" horiz-adv-x="777" d="M35 300q0 144 96.5 228.5t256.5 84.5q161 0 258 -84.5t97 -228.5t-97 -228.5t-258 -84.5q-159 0 -256 84.5t-97 228.5zM188 300q0 -126 54.5 -199.5t145.5 -73.5q92 0 146.5 73.5t54.5 199.5t-54.5 199.5t-146.5 73.5q-91 0 -145.5 -73.5t-54.5 -199.5zM372 670 q43 74 143 164q49 -25 68 -81q-103 -66 -204 -90z" />
<glyph unicode="&#xf4;" horiz-adv-x="777" d="M35 300q0 144 96.5 228.5t256.5 84.5q106 0 186 -38t124.5 -109t44.5 -166q0 -144 -97 -228.5t-258 -84.5q-159 0 -256 84.5t-97 228.5zM188 300q0 -126 54.5 -199.5t145.5 -73.5q92 0 146.5 73.5t54.5 199.5t-54.5 199.5t-146.5 73.5q-91 0 -145.5 -73.5t-54.5 -199.5z M238 663l145 153h11l153 -153l-7 -8l-152 65l-143 -65z" />
<glyph unicode="&#xf5;" horiz-adv-x="777" d="M35 300q0 144 96.5 228.5t256.5 84.5q106 0 186 -38t124.5 -109t44.5 -166q0 -144 -97 -228.5t-258 -84.5q-159 0 -256 84.5t-97 228.5zM188 300q0 -126 54.5 -199.5t145.5 -73.5q92 0 146.5 73.5t54.5 199.5t-54.5 199.5t-146.5 73.5q-91 0 -145.5 -73.5t-54.5 -199.5z M238 668q-5 45 20.5 88t75.5 43q28 0 73 -23t73 -26q26 -2 48 10.5t29 29.5h11q10 -41 -17 -83.5t-79 -41.5q-30 0 -76 23.5t-70 26.5q-25 3 -46.5 -12t-30.5 -35h-11z" />
<glyph unicode="&#xf6;" horiz-adv-x="777" d="M35 300q0 144 96.5 228.5t256.5 84.5q106 0 186 -38t124.5 -109t44.5 -166q0 -144 -97 -228.5t-258 -84.5q-159 0 -256 84.5t-97 228.5zM188 300q0 -126 54.5 -199.5t145.5 -73.5q92 0 146.5 73.5t54.5 199.5t-54.5 199.5t-146.5 73.5q-91 0 -145.5 -73.5t-54.5 -199.5z M210 719.5q0 24.5 17.5 42.5t42.5 18t42.5 -18t17.5 -42.5t-17.5 -42.5t-42.5 -18t-42.5 18t-17.5 42.5zM443 719.5q0 24.5 18 42.5t42.5 18t42.5 -18t18 -42.5t-18 -42.5t-42.5 -18t-42.5 18t-18 42.5z" />
<glyph unicode="&#xf7;" horiz-adv-x="481" d="M40 281v57h402v-57h-402zM195 152q0 19 13.5 32.5t32 13.5t32 -13.5t13.5 -32.5t-13.5 -32t-32 -13t-32 13t-13.5 32zM195 468q0 19 13.5 32.5t32 13.5t32 -13.5t13.5 -32.5t-13.5 -32t-32 -13t-32 13t-13.5 32z" />
<glyph unicode="&#xf8;" horiz-adv-x="777" d="M35 300q0 144 96.5 228.5t256.5 84.5q106 0 187 -40l55 65l36 -30l-49 -59q60 -41 93 -105t33 -144q0 -144 -97 -228.5t-258 -84.5q-117 0 -203 48l-54 -64l-36 30l50 60q-110 85 -110 239zM188 300q0 -89 28 -154l308 366q-53 61 -136 61q-91 0 -145.5 -73.5 t-54.5 -199.5zM241 102q55 -75 147 -75t146.5 73.5t54.5 199.5q0 102 -37 172z" />
<glyph unicode="&#xf9;" horiz-adv-x="704" d="M27 590v10h263v-10h-14q-19 0 -32 -12t-13 -30v-325q0 -92 42.5 -144t118.5 -52q78 0 122.5 49t44.5 136v336q-1 19 -14 30.5t-32 11.5h-13v10h185v-10h-14q-19 0 -32 -11.5t-14 -29.5v-331q0 -108 -66 -169.5t-186 -61.5q-141 0 -213.5 60t-72.5 169v332q0 18 -13.5 30 t-32.5 12h-14zM187 754q19 57 67 81q102 -91 144 -164l-7 -7q-100 24 -204 90z" />
<glyph unicode="&#xfa;" horiz-adv-x="704" d="M27 590v10h263v-10h-14q-19 0 -32 -12t-13 -30v-325q0 -92 42.5 -144t118.5 -52q78 0 122.5 49t44.5 136v336q-1 19 -14 30.5t-32 11.5h-13v10h185v-10h-14q-19 0 -32 -11.5t-14 -29.5v-331q0 -108 -66 -169.5t-186 -61.5q-141 0 -213.5 60t-72.5 169v332q0 18 -13.5 30 t-32.5 12h-14zM362 669q43 74 144 164q48 -25 67 -81q-102 -65 -204 -90z" />
<glyph unicode="&#xfb;" horiz-adv-x="704" d="M27 590v10h263v-10h-14q-19 0 -32 -12t-13 -30v-325q0 -92 42.5 -144t118.5 -52q78 0 122.5 49t44.5 136v336q-1 19 -14 30.5t-32 11.5h-13v10h185v-10h-14q-12 0 -22.5 -5t-17 -14.5t-6.5 -21.5v-331q0 -108 -66 -169.5t-186 -61.5q-141 0 -213.5 60t-72.5 169v332 q0 18 -13.5 30t-32.5 12h-14zM229 662l144 153h11l153 -153l-7 -8l-152 65l-143 -65z" />
<glyph unicode="&#xfc;" horiz-adv-x="704" d="M27 590v10h263v-10h-14q-19 0 -32 -12t-13 -30v-325q0 -92 42.5 -144t118.5 -52q78 0 122.5 49t44.5 136v336q-1 19 -14 30.5t-32 11.5h-13v10h185v-10h-14q-19 0 -32 -11.5t-14 -29.5v-331q0 -108 -66 -169.5t-186 -61.5q-141 0 -213.5 60t-72.5 169v332q0 18 -13.5 30 t-32.5 12h-14zM200 719q0 25 17.5 42.5t42.5 17.5t42.5 -17.5t17.5 -42.5t-17.5 -42.5t-42.5 -17.5t-42.5 17.5t-17.5 42.5zM434 719q0 25 17.5 42.5t42.5 17.5t42.5 -17.5t17.5 -42.5t-17.5 -42.5t-42.5 -17.5t-42.5 17.5t-17.5 42.5z" />
<glyph unicode="&#xfd;" horiz-adv-x="635" d="M-31 590v10h304v-10h-11q-19 0 -29.5 -16t-2.5 -33l133 -230l135 230q8 17 -3 33t-30 16h-10v10h214v-10h-13q-18 0 -35 -7t-30.5 -18t-22.5 -24l-178 -274v-204q1 -22 17 -37.5t40 -15.5h11v-10h-280v10h12q23 0 39 15.5t17 37.5v204l-177 274q-14 22 -37.5 35.5 t-50.5 13.5h-12zM340 669q43 74 144 164q49 -25 68 -81q-103 -65 -205 -90z" />
<glyph unicode="&#xfe;" horiz-adv-x="571" d="M43 0l1 10h11q23 0 38.5 15.5t16.5 37.5v475q-1 22 -16.5 37t-38.5 15h-11l-1 10h274v-10h-12q-14 0 -26.5 -6.5t-20 -18.5t-7.5 -27v-59h85q114 0 171.5 -46t59.5 -121q2 -58 -23.5 -103t-67 -67t-94 -19.5t-100.5 34.5v8h3.5h9.5t14 1t17 4t19.5 7.5t19.5 12.5t18.5 18 t16.5 25.5t13 33.5q6 24 6 53q-2 56 -34 88t-87 32h-47v-377q0 -22 16 -37.5t38 -15.5h12v-10h-274z" />
<glyph unicode="&#xff;" horiz-adv-x="635" d="M-31 590v10h304v-10h-11q-19 0 -29.5 -16t-2.5 -33l133 -230l135 230q8 17 -3 33t-30 16h-10v10h214v-10h-13q-18 0 -35 -7t-30.5 -18t-22.5 -24l-178 -274v-204q1 -22 17 -37.5t40 -15.5h11v-10h-280v10h12q15 0 27.5 7t20 19t8.5 27v204l-177 274q-14 22 -37.5 35.5 t-50.5 13.5h-12zM179 719q0 25 17.5 42.5t42.5 17.5t42.5 -17.5t17.5 -42.5t-17.5 -42.5t-42.5 -17.5t-42.5 17.5t-17.5 42.5zM412 719q0 25 17.5 42.5t42.5 17.5t42.5 -17.5t17.5 -42.5t-17.5 -42.5t-42.5 -17.5t-42.5 17.5t-17.5 42.5z" />
<glyph unicode="&#x152;" horiz-adv-x="1071" d="M45 351q0 168 106.5 265.5t290.5 97.5q32 0 90 -7t90 -7h249q31 0 67.5 6t51.5 12v-175l-11 1v11q0 45 -26 72.5t-71 29.5h-170v-291h135q36 1 60.5 25.5t23.5 60.5v9h10v-231h-10v8q0 24 -10.5 43.5t-29.5 30.5t-43 12h-136v-281h133q73 0 122.5 42t73.5 119h10 l-46 -204h-295q-113 0 -141 -2q-5 0 -54.5 -6t-80.5 -6q-177 0 -283 98.5t-106 266.5zM202 350q-1 -98 29.5 -171.5t85 -112t126.5 -38.5q49 0 85 18.5t36 42.5v522q0 24 -35.5 42.5t-85.5 18.5q-107 0 -174 -86t-67 -236z" />
<glyph unicode="&#x153;" horiz-adv-x="953" d="M35 302q0 97 42 167.5t121 107.5t186 37q27 0 79.5 -6.5t81.5 -6.5h234q26 0 58 5.5t45 10.5v-158l-10 1v9q0 42 -23.5 66.5t-64.5 25.5h-152v-244h119q35 1 55.5 22.5t20.5 55.5v7h10v-208h-10v7q0 21 -9 38.5t-26 28t-40 10.5h-120v-238h125q42 0 75 17.5t56 49 t36 75.5h10l-38 -182h-350q-27 0 -82 -6.5t-87 -6.5q-156 0 -249 84t-93 231zM182 301q0 -128 56 -201.5t147 -73.5q45 0 75.5 17.5t30.5 39.5v436q0 22 -30 39t-75 17q-90 0 -146.5 -72t-57.5 -202z" />
<glyph unicode="&#x178;" horiz-adv-x="702" d="M-31 690v10h331v-10h-13q-22 0 -34 -20.5t-1 -41.5l143 -260l149 260q11 21 -1.5 41.5t-34.5 20.5h-12v10h238v-10h-14q-30 0 -57 -17t-43 -41l-197 -314v-245q0 -26 19 -44.5t45 -18.5h12l1 -10h-304v10h13q26 0 44.5 18t19.5 44v247l-191 314q-15 24 -42.5 40.5 t-56.5 16.5h-14zM219 819q0 25 17.5 42.5t42.5 17.5t42.5 -17.5t17.5 -42.5t-17.5 -42.5t-42.5 -17.5t-42.5 17.5t-17.5 42.5zM452 819q0 25 17.5 42.5t42.5 17.5t42.5 -17.5t17.5 -42.5t-17.5 -42.5t-42.5 -17.5t-42.5 17.5t-17.5 42.5z" />
<glyph unicode="&#x2c6;" horiz-adv-x="600" d="M127 695l144 154h11l153 -154l-6 -8l-153 65l-143 -65z" />
<glyph unicode="&#x2dc;" horiz-adv-x="600" d="M122 669q-5 45 20.5 88t75.5 43q28 0 73 -23t73 -26q26 -3 48 10t29 30h11q10 -41 -17 -83.5t-79 -41.5q-30 0 -76 23.5t-70 26.5q-25 3 -46.5 -12t-30.5 -35h-11z" />
<glyph unicode="&#x2000;" horiz-adv-x="472" />
<glyph unicode="&#x2001;" horiz-adv-x="944" />
<glyph unicode="&#x2002;" horiz-adv-x="472" />
<glyph unicode="&#x2003;" horiz-adv-x="944" />
<glyph unicode="&#x2004;" horiz-adv-x="314" />
<glyph unicode="&#x2005;" horiz-adv-x="236" />
<glyph unicode="&#x2006;" horiz-adv-x="157" />
<glyph unicode="&#x2007;" horiz-adv-x="157" />
<glyph unicode="&#x2008;" horiz-adv-x="118" />
<glyph unicode="&#x2009;" horiz-adv-x="188" />
<glyph unicode="&#x200a;" horiz-adv-x="52" />
<glyph unicode="&#x2010;" horiz-adv-x="380" d="M32 292l8 33h300l8 -33l-8 -34h-300z" />
<glyph unicode="&#x2011;" horiz-adv-x="380" d="M32 292l8 33h300l8 -33l-8 -34h-300z" />
<glyph unicode="&#x2012;" horiz-adv-x="380" d="M32 292l8 33h300l8 -33l-8 -34h-300z" />
<glyph unicode="&#x2013;" horiz-adv-x="500" d="M0 265v52h500v-52h-500z" />
<glyph unicode="&#x2014;" horiz-adv-x="800" d="M0 265v52h800v-52h-800z" />
<glyph unicode="&#x2018;" horiz-adv-x="247" d="M54 600q-20 41 -13.5 82.5t27.5 74t57 50.5t75 12l4 -12q-39 -14 -48 -49.5t22 -72.5q22 -26 24 -60t-21 -56q-26 -27 -68 -17.5t-59 48.5z" />
<glyph unicode="&#x2019;" horiz-adv-x="241" d="M45 575q36 14 44.5 48t-20.5 69q-21 25 -22.5 57t19.5 53q25 26 65 17t56 -46q19 -40 12.5 -79.5t-26 -70t-54 -48t-71.5 -11.5z" />
<glyph unicode="&#x201a;" horiz-adv-x="247" d="M44 -112q38 15 47 50.5t-21 72.5q-23 26 -24.5 59.5t20.5 56.5q26 26 68 17t59 -48q20 -42 13.5 -83.5t-27.5 -73.5t-56.5 -50t-75.5 -13z" />
<glyph unicode="&#x201c;" horiz-adv-x="454" d="M54 600q-20 41 -13.5 82.5t27.5 74t57 50.5t75 12l4 -12q-39 -14 -48 -49.5t22 -72.5q22 -26 24 -60t-21 -56q-26 -27 -68 -17.5t-59 48.5zM255 600q-19 41 -12.5 82.5t27 74t56.5 50.5t75 12l4 -12q-38 -14 -47 -49.5t21 -72.5q23 -26 24.5 -60t-21.5 -56 q-26 -27 -67.5 -17.5t-59.5 48.5z" />
<glyph unicode="&#x201d;" horiz-adv-x="435" d="M45 575q36 14 44.5 48t-20.5 69q-21 25 -22.5 57t19.5 53q25 26 65 17t56 -46q19 -40 12.5 -79.5t-26 -70t-54 -48t-71.5 -11.5zM239 575q37 14 45.5 48t-20.5 69q-21 25 -23 57t20 53q25 26 64.5 17t56.5 -46q19 -40 12.5 -79.5t-26.5 -70t-54 -48t-71 -11.5z" />
<glyph unicode="&#x201e;" horiz-adv-x="448" d="M43 -118q39 15 48 51t-22 74q-23 26 -24.5 60.5t21.5 57.5q26 27 69 17.5t60 -49.5q20 -42 13.5 -84.5t-28 -75t-58 -51t-76.5 -13.5zM241 -118q39 15 48 51t-22 74q-23 26 -24.5 60.5t20.5 57.5q27 27 69.5 17.5t60.5 -49.5q20 -42 13.5 -84.5t-28 -75t-58 -51 t-76.5 -13.5z" />
<glyph unicode="&#x2022;" horiz-adv-x="367" d="M61 315q-6 18 0 35q19 56 34.5 71.5t71.5 34.5q17 6 35 0q55 -19 71 -34.5t34 -71.5q6 -17 0 -37q-18 -54 -34 -69.5t-71 -33.5q-18 -6 -35 0q-56 18 -71.5 34t-34.5 71z" />
<glyph unicode="&#x2026;" horiz-adv-x="673" d="M39 62q0 30 21 51.5t51 21.5t51.5 -21.5t21.5 -51.5t-21.5 -51t-51.5 -21t-51 21t-21 51zM266 62q0 30 21.5 51.5t51.5 21.5t51 -21.5t21 -51.5t-21 -51t-51 -21t-51.5 21t-21.5 51zM490 62q0 30 21 51.5t51 21.5t51 -21.5t21 -51.5t-21 -51t-51 -21t-51 21t-21 51z" />
<glyph unicode="&#x202f;" horiz-adv-x="188" />
<glyph unicode="&#x2039;" horiz-adv-x="313" d="M40 292l205 198l8 -5l-93 -193l94 -197l-9 -7z" />
<glyph unicode="&#x203a;" horiz-adv-x="313" d="M60 95l95 197l-94 193l8 5l205 -198l-205 -204z" />
<glyph unicode="&#x205f;" horiz-adv-x="236" />
<glyph unicode="&#x20ac;" horiz-adv-x="708" d="M-28 271l15 43h95q-2 18 -2 36q0 17 1 34h-109l15 42h100q25 128 125.5 208t242.5 80q72 0 136 -15t87 -44l-44 -132h-10q3 34 -5.5 61t-24.5 43t-39 26.5t-44.5 14.5t-45.5 4q-89 0 -147 -66t-73 -180h356l-15 -42h-346v-33q0 -19 1 -37h321l-14 -43h-303 q16 -113 75.5 -177.5t153.5 -64.5q81 0 128 39.5t68 121.5h9v-141q-30 -31 -94.5 -46.5t-131.5 -15.5q-140 0 -239.5 79t-125.5 205h-116z" />
<glyph unicode="&#x2122;" horiz-adv-x="486" d="M10 651v55q13 -5 34 -5h118q21 0 33 5v-55h-2q0 34 -31 35h-33v-164q0 -8 5 -13t12 -5h4v-3h-94v3h3q5 0 9 2.5t6.5 6.5t2.5 9v164h-34q-14 -1 -22 -9.5t-8 -22.5v-3h-3zM193 501v3h4q17 0 21 16l24 184h3l92 -136l84 136h2l29 -183q4 -17 20 -17h5v-3h-94v3h5 q4 0 7.5 3.5t3.5 8.5l-14 91l-49 -80q-11 -18 -11 -32h-3l-72 109l-9 -89q0 -4 3 -7.5t8 -3.5h4v-3h-63z" />
<glyph unicode="&#x25fc;" horiz-adv-x="600" d="M0 0v600h600v-600h-600z" />
<glyph unicode="&#xfb01;" horiz-adv-x="886" d="M34 0v10h12q23 0 38.5 15t16.5 37v476q0 22 -16 37t-39 15h-12v10h353q14 0 30 1.5t30.5 4t26.5 5t18 4.5v-160h-11v10q0 43 -24 68.5t-68 26.5h-144v-243h115q35 1 55.5 23t20.5 56v7h11v-212h-11v7q0 34 -20.5 56t-54.5 23h-116v-214q1 -15 8 -27t19.5 -19t27.5 -7h12 v-10h-278zM569 0v10h12q24 0 40.5 15.5t17.5 37.5v474q-1 22 -17.5 37.5t-40.5 15.5h-12v10h284v-10h-12q-24 0 -40.5 -15t-17.5 -37v-475q1 -23 17.5 -38t40.5 -15h12v-10h-284z" />
<glyph unicode="&#xfb02;" horiz-adv-x="1083" d="M34 0v10h12q23 0 38.5 15t16.5 37v476q0 22 -16 37t-39 15h-12v10h353q14 0 30 1.5t30.5 4t26.5 5t18 4.5v-160h-11v10q0 43 -24 68.5t-68 26.5h-144v-243h115q35 1 55.5 23t20.5 56v7h11v-212h-11v7q0 34 -20.5 56t-54.5 23h-116v-214q1 -23 16.5 -38t38.5 -15h12v-10 h-278zM569 0v10h12q22 0 38 15t16 37v475q0 15 -7.5 27t-20 19t-27.5 7h-11v10h277v-10h-11q-23 0 -39 -15t-17 -38v-497h121q62 1 105 38.5t63 105.5h10l-39 -184h-470z" />
</font>
</defs>
</svg>
